  0
SECTION
  2
HEADER
  9
$ACADVER
  1
AC1015
  9
$ACADMAINTVER
 70
     6
  9
$DWGCODEPAGE
  3
ANSI_1252
  9
$INSBASE
 10
0.0
 20
0.0
 30
0.0
  9
$EXTMIN
 10
0.0
 20
0.0
 30
0.0
  9
$EXTMAX
 10
594.0000000000001
 20
420.0000000000002
 30
0.0
  9
$LIMMIN
 10
0.0
 20
0.0
  9
$LIMMAX
 10
12.0
 20
9.0
  9
$ORTHOMODE
 70
     0
  9
$REGENMODE
 70
     1
  9
$FILLMODE
 70
     1
  9
$QTEXTMODE
 70
     0
  9
$MIRRTEXT
 70
     1
  9
$LTSCALE
 40
1.0
  9
$ATTMODE
 70
     1
  9
$TEXTSIZE
 40
0.2
  9
$TRACEWID
 40
0.05
  9
$TEXTSTYLE
  7
Standard
  9
$CLAYER
  8
0
  9
$CELTYPE
  6
ByLayer
  9
$CECOLOR
 62
   256
  9
$CELTSCALE
 40
1.0
  9
$DISPSILH
 70
     0
  9
$DIMSCALE
 40
1.0
  9
$DIMASZ
 40
0.18
  9
$DIMEXO
 40
0.0625
  9
$DIMDLI
 40
0.38
  9
$DIMRND
 40
0.0
  9
$DIMDLE
 40
0.0
  9
$DIMEXE
 40
0.18
  9
$DIMTP
 40
0.0
  9
$DIMTM
 40
0.0
  9
$DIMTXT
 40
0.18
  9
$DIMCEN
 40
0.09
  9
$DIMTSZ
 40
0.0
  9
$DIMTOL
 70
     0
  9
$DIMLIM
 70
     0
  9
$DIMTIH
 70
     1
  9
$DIMTOH
 70
     1
  9
$DIMSE1
 70
     0
  9
$DIMSE2
 70
     0
  9
$DIMTAD
 70
     0
  9
$DIMZIN
 70
     0
  9
$DIMBLK
  1

  9
$DIMASO
 70
     1
  9
$DIMSHO
 70
     1
  9
$DIMPOST
  1

  9
$DIMAPOST
  1

  9
$DIMALT
 70
     0
  9
$DIMALTD
 70
     2
  9
$DIMALTF
 40
25.4
  9
$DIMLFAC
 40
1.0
  9
$DIMTOFL
 70
     0
  9
$DIMTVP
 40
0.0
  9
$DIMTIX
 70
     0
  9
$DIMSOXD
 70
     0
  9
$DIMSAH
 70
     0
  9
$DIMBLK1
  1

  9
$DIMBLK2
  1

  9
$DIMSTYLE
  2
Standard
  9
$DIMCLRD
 70
     0
  9
$DIMCLRE
 70
     0
  9
$DIMCLRT
 70
     0
  9
$DIMTFAC
 40
1.0
  9
$DIMGAP
 40
0.09
  9
$DIMJUST
 70
     0
  9
$DIMSD1
 70
     0
  9
$DIMSD2
 70
     0
  9
$DIMTOLJ
 70
     1
  9
$DIMTZIN
 70
     0
  9
$DIMALTZ
 70
     0
  9
$DIMALTTZ
 70
     0
  9
$DIMUPT
 70
     0
  9
$DIMDEC
 70
     4
  9
$DIMTDEC
 70
     4
  9
$DIMALTU
 70
     2
  9
$DIMALTTD
 70
     2
  9
$DIMTXSTY
  7
Standard
  9
$DIMAUNIT
 70
     0
  9
$DIMADEC
 70
     0
  9
$DIMALTRND
 40
0.0
  9
$DIMAZIN
 70
     0
  9
$DIMDSEP
 70
    46
  9
$DIMATFIT
 70
     3
  9
$DIMFRAC
 70
     0
  9
$DIMLDRBLK
  1

  9
$DIMLUNIT
 70
     2
  9
$DIMLWD
 70
    -2
  9
$DIMLWE
 70
    -2
  9
$DIMTMOVE
 70
     0
  9
$LUNITS
 70
     2
  9
$LUPREC
 70
     4
  9
$SKETCHINC
 40
0.1
  9
$FILLETRAD
 40
0.5
  9
$AUNITS
 70
     0
  9
$AUPREC
 70
     0
  9
$MENU
  1
.
  9
$ELEVATION
 40
0.0
  9
$PELEVATION
 40
0.0
  9
$THICKNESS
 40
0.0
  9
$LIMCHECK
 70
     0
  9
$CHAMFERA
 40
0.5
  9
$CHAMFERB
 40
0.5
  9
$CHAMFERC
 40
1.0
  9
$CHAMFERD
 40
0.0
  9
$SKPOLY
 70
     0
  9
$TDCREATE
 40
2456997.611456551
  9
$TDUCREATE
 40
2456997.569789884
  9
$TDUPDATE
 40
2456997.61145691
  9
$TDUUPDATE
 40
2456997.569790243
  9
$TDINDWG
 40
0.0000000116
  9
$TDUSRTIMER
 40
0.0000000116
  9
$USRTIMER
 70
     1
  9
$ANGBASE
 50
0.0
  9
$ANGDIR
 70
     0
  9
$PDMODE
 70
     0
  9
$PDSIZE
 40
0.0
  9
$PLINEWID
 40
0.0
  9
$SPLFRAME
 70
     0
  9
$SPLINETYPE
 70
     6
  9
$SPLINESEGS
 70
     8
  9
$HANDSEED
  5
613
  9
$SURFTAB1
 70
     6
  9
$SURFTAB2
 70
     6
  9
$SURFTYPE
 70
     6
  9
$SURFU
 70
     6
  9
$SURFV
 70
     6
  9
$UCSBASE
  2

  9
$UCSNAME
  2

  9
$UCSORG
 10
0.0
 20
0.0
 30
0.0
  9
$UCSXDIR
 10
1.0
 20
0.0
 30
0.0
  9
$UCSYDIR
 10
0.0
 20
1.0
 30
0.0
  9
$UCSORTHOREF
  2

  9
$UCSORTHOVIEW
 70
     0
  9
$UCSORGTOP
 10
0.0
 20
0.0
 30
0.0
  9
$UCSORGBOTTOM
 10
0.0
 20
0.0
 30
0.0
  9
$UCSORGLEFT
 10
0.0
 20
0.0
 30
0.0
  9
$UCSORGRIGHT
 10
0.0
 20
0.0
 30
0.0
  9
$UCSORGFRONT
 10
0.0
 20
0.0
 30
0.0
  9
$UCSORGBACK
 10
0.0
 20
0.0
 30
0.0
  9
$PUCSBASE
  2

  9
$PUCSNAME
  2

  9
$PUCSORG
 10
0.0
 20
0.0
 30
0.0
  9
$PUCSXDIR
 10
1.0
 20
0.0
 30
0.0
  9
$PUCSYDIR
 10
0.0
 20
1.0
 30
0.0
  9
$PUCSORTHOREF
  2

  9
$PUCSORTHOVIEW
 70
     0
  9
$PUCSORGTOP
 10
0.0
 20
0.0
 30
0.0
  9
$PUCSORGBOTTOM
 10
0.0
 20
0.0
 30
0.0
  9
$PUCSORGLEFT
 10
0.0
 20
0.0
 30
0.0
  9
$PUCSORGRIGHT
 10
0.0
 20
0.0
 30
0.0
  9
$PUCSORGFRONT
 10
0.0
 20
0.0
 30
0.0
  9
$PUCSORGBACK
 10
0.0
 20
0.0
 30
0.0
  9
$USERI1
 70
     0
  9
$USERI2
 70
     0
  9
$USERI3
 70
     0
  9
$USERI4
 70
     0
  9
$USERI5
 70
     0
  9
$USERR1
 40
18.1
  9
$USERR2
 40
0.0
  9
$USERR3
 40
0.0
  9
$USERR4
 40
0.0
  9
$USERR5
 40
0.0
  9
$WORLDVIEW
 70
     1
  9
$SHADEDGE
 70
     3
  9
$SHADEDIF
 70
    70
  9
$TILEMODE
 70
     1
  9
$MAXACTVP
 70
    64
  9
$PINSBASE
 10
0.0
 20
0.0
 30
0.0
  9
$PLIMCHECK
 70
     0
  9
$PEXTMIN
 10
1.00000000000000E+20
 20
1.00000000000000E+20
 30
1.00000000000000E+20
  9
$PEXTMAX
 10
-1.00000000000000E+20
 20
-1.00000000000000E+20
 30
-1.00000000000000E+20
  9
$PLIMMIN
 10
0.0
 20
0.0
  9
$PLIMMAX
 10
12.0
 20
9.0
  9
$UNITMODE
 70
     0
  9
$VISRETAIN
 70
     1
  9
$PLINEGEN
 70
     0
  9
$PSLTSCALE
 70
     1
  9
$TREEDEPTH
 70
  3020
  9
$CMLSTYLE
  2
Standard
  9
$CMLJUST
 70
     0
  9
$CMLSCALE
 40
1.0
  9
$PROXYGRAPHICS
 70
     1
  9
$MEASUREMENT
 70
     1
  9
$CELWEIGHT
370
    -1
  9
$ENDCAPS
280
     0
  9
$JOINSTYLE
280
     0
  9
$LWDISPLAY
290
     0
  9
$INSUNITS
 70
     4
  9
$HYPERLINKBASE
  1

  9
$STYLESHEET
  1

  9
$XEDIT
290
     1
  9
$CEPSNTYPE
380
     0
  9
$PSTYLEMODE
290
     1
  9
$FINGERPRINTGUID
  2
{8D9E54C4-929A-41E6-8671-C8ED2FE57912}
  9
$VERSIONGUID
  2
{FAEB1C32-E019-11D5-929B-00C0DF256EC4}
  9
$EXTNAMES
290
     1
  9
$PSVPSCALE
 40
0.0
  9
$OLESTARTUP
290
     0
  0
ENDSEC
  0
SECTION
  2
CLASSES
  0
CLASS
  1
ACDBDICTIONARYWDFLT
  2
AcDbDictionaryWithDefault
  3
ObjectDBX Classes
 90
        0
280
     0
281
     0
  0
CLASS
  1
VISUALSTYLE
  2
AcDbVisualStyle
  3
ObjectDBX Classes
 90
     4095
280
     0
281
     0
  0
CLASS
  1
MATERIAL
  2
AcDbMaterial
  3
ObjectDBX Classes
 90
     1153
280
     0
281
     0
  0
CLASS
  1
DICTIONARYVAR
  2
AcDbDictionaryVar
  3
ObjectDBX Classes
 90
        0
280
     0
281
     0
  0
CLASS
  1
ACDBPLACEHOLDER
  2
AcDbPlaceHolder
  3
ObjectDBX Classes
 90
        0
280
     0
281
     0
  0
CLASS
  1
LAYOUT
  2
AcDbLayout
  3
ObjectDBX Classes
 90
        0
280
     0
281
     0
  0
ENDSEC
  0
SECTION
  2
TABLES
  0
TABLE
  2
VPORT
  5
8
330
0
100
AcDbSymbolTable
 70
     1
  0
VPORT
  5
29
330
8
100
AcDbSymbolTableRecord
100
AcDbViewportTableRecord
  2
*Active
 70
     0
 10
0.0
 20
0.0
 11
1.0
 21
1.0
 12
297.0000000000001
 22
210.0000000000001
 13
0.0
 23
0.0
 14
0.5
 24
0.5
 15
0.5
 25
0.5
 16
0.0
 26
0.0
 36
1.0
 17
0.0
 27
0.0
 37
0.0
 40
462.0000000000003
 41
1.60267857142857
 42
50.0
 43
0.0
 44
0.0
 50
0.0
 51
0.0
 71
     0
 72
   100
 73
     1
 74
     3
 75
     0
 76
     0
 77
     0
 78
     0
281
     0
 65
     1
110
0.0
120
0.0
130
0.0
111
1.0
121
0.0
131
0.0
112
0.0
122
1.0
132
0.0
 79
     0
146
0.0
  0
ENDTAB
  0
TABLE
  2
LTYPE
  5
5
330
0
100
AcDbSymbolTable
 70
    10
  0
LTYPE
  5
14
330
5
100
AcDbSymbolTableRecord
100
AcDbLinetypeTableRecord
  2
ByBlock
 70
     0
  3

 72
    65
 73
     0
 40
0.0
  0
LTYPE
  5
15
330
5
100
AcDbSymbolTableRecord
100
AcDbLinetypeTableRecord
  2
ByLayer
 70
     0
  3

 72
    65
 73
     0
 40
0.0
  0
LTYPE
  5
16
330
5
100
AcDbSymbolTableRecord
100
AcDbLinetypeTableRecord
  2
Continuous
 70
     0
  3
Solid line
 72
    65
 73
     0
 40
0.0
  0
LTYPE
  5
3F
330
5
100
AcDbSymbolTableRecord
100
AcDbLinetypeTableRecord
  2
DASHED
 70
     0
  3
Dashed
 72
    65
 73
     2
 40
15.0
 49
7.0
 74
     0
 49
-8.0
 74
     0
  0
LTYPE
  5
40
330
5
100
AcDbSymbolTableRecord
100
AcDbLinetypeTableRecord
  2
DOTTED
 70
     0
  3
Dotted
 72
    65
 73
     2
 40
1.0
 49
0.0
 74
     0
 49
-1.0
 74
     0
  0
LTYPE
  5
41
330
5
100
AcDbSymbolTableRecord
100
AcDbLinetypeTableRecord
  2
DOT_CENTER
 70
     0
  3
Dot_Center
 72
    65
 73
     4
 40
14.0
 49
12.0
 74
     0
 49
-1.0
 74
     0
 49
0.0
 74
     0
 49
-1.0
 74
     0
  0
LTYPE
  5
42
330
5
100
AcDbSymbolTableRecord
100
AcDbLinetypeTableRecord
  2
LONG_DASHED
 70
     0
  3
Long_Dashed
 72
    65
 73
     2
 40
15.0
 49
10.0
 74
     0
 49
-5.0
 74
     0
  0
LTYPE
  5
43
330
5
100
AcDbSymbolTableRecord
100
AcDbLinetypeTableRecord
  2
DASH_CENTER
 70
     0
  3
Dash_Center
 72
    65
 73
     4
 40
14.0
 49
11.0
 74
     0
 49
-1.0
 74
     0
 49
1.0
 74
     0
 49
-1.0
 74
     0
  0
LTYPE
  5
44
330
5
100
AcDbSymbolTableRecord
100
AcDbLinetypeTableRecord
  2
PHANTOM
 70
     0
  3
Phantom
 72
    65
 73
     6
 40
13.0
 49
10.0
 74
     0
 49
-1.0
 74
     0
 49
0.0
 74
     0
 49
-1.0
 74
     0
 49
0.0
 74
     0
 49
-1.0
 74
     0
  0
LTYPE
  5
45
330
5
100
AcDbSymbolTableRecord
100
AcDbLinetypeTableRecord
  2
CENTER_DASH_DASH
 70
     0
  3
Center_Dash_Dash
 72
    65
 73
     6
 40
14.0
 49
9.0
 74
     0
 49
-1.0
 74
     0
 49
1.0
 74
     0
 49
-1.0
 74
     0
 49
1.0
 74
     0
 49
-1.0
 74
     0
  0
LTYPE
  5
46
330
5
100
AcDbSymbolTableRecord
100
AcDbLinetypeTableRecord
  2
CHAIN
 70
     0
  3
CHAIN
 72
    65
 73
     4
 40
4.0
 49
1.0
 74
     0
 49
-1.0
 74
     0
 49
1.0
 74
     0
 49
-1.0
 74
     0
  0
LTYPE
  5
47
330
5
100
AcDbSymbolTableRecord
100
AcDbLinetypeTableRecord
  2
DASHED_SPACE
 70
     0
  3
DASHED_SPACE
 72
    65
 73
     2
 40
2.0
 49
1.0
 74
     0
 49
-1.0
 74
     0
  0
ENDTAB
  0
TABLE
  2
LAYER
  5
2
330
0
100
AcDbSymbolTable
 70
     8
  0
LAYER
  5
10
330
2
100
AcDbSymbolTableRecord
100
AcDbLayerTableRecord
  2
0
 70
     0
 62
     7
  6
Continuous
370
    -3
390
F
  0
LAYER
  5
48
330
2
100
AcDbSymbolTableRecord
100
AcDbLayerTableRecord
  2
1
 70
     0
 62
     7
  6
Continuous
370
    -3
390
F
  0
LAYER
  5
49
330
2
100
AcDbSymbolTableRecord
100
AcDbLayerTableRecord
  2
Bemaßungen_TC_020513_DIN_
 70
     0
 62
     7
  6
Continuous
370
    -3
390
F
  0
LAYER
  5
4A
330
2
100
AcDbSymbolTableRecord
100
AcDbLayerTableRecord
  2
Mittellinie_TC_020513_DIN_
 70
     0
 62
     7
  6
Continuous
370
    -3
390
F
  0
LAYER
  5
4B
330
2
100
AcDbSymbolTableRecord
100
AcDbLayerTableRecord
  2
Mittelpunktmarkierung_TC_020513_DIN_
 70
     0
 62
     7
  6
Continuous
370
    -3
390
F
  0
LAYER
  5
4C
330
2
100
AcDbSymbolTableRecord
100
AcDbLayerTableRecord
  2
Sichtbare_Kanten_TC_020513_DIN_
 70
     0
 62
     7
  6
Continuous
370
    -3
390
F
  0
LAYER
  5
4D
330
2
100
AcDbSymbolTableRecord
100
AcDbLayerTableRecord
  2
Stich_1-Linien_TC_020513_DIN_
 70
     0
 62
     7
  6
Continuous
370
    -3
390
F
  0
LAYER
  5
4E
330
2
100
AcDbSymbolTableRecord
100
AcDbLayerTableRecord
  2
Symbole_TC_020513_DIN_
 70
     0
 62
     7
  6
Continuous
370
    -3
390
F
  0
ENDTAB
  0
TABLE
  2
STYLE
  5
3
330
0
100
AcDbSymbolTable
 70
     4
  0
STYLE
  5
11
330
3
100
AcDbSymbolTableRecord
100
AcDbTextStyleTableRecord
  2
Standard
 70
     0
 40
0.0
 41
1.0
 50
0.0
 71
     0
 42
0.2
  3
txt
  4

  0
STYLE
  5
A3
330
3
100
AcDbSymbolTableRecord
100
AcDbTextStyleTableRecord
  2
CONVERTER_11
 70
     0
 40
0.0
 41
1.2
 50
0.0
 71
     0
 42
0.2
  3
ARIAL.TTF
  4

  0
STYLE
  5
A8
330
3
100
AcDbSymbolTableRecord
100
AcDbTextStyleTableRecord
  2
CONVERTER_12
 70
     0
 40
0.0
 41
1.38
 50
0.0
 71
     0
 42
0.2
  3
ARIAL.TTF
  4

  0
STYLE
  5
57D
330
3
100
AcDbSymbolTableRecord
100
AcDbTextStyleTableRecord
  2
CONVERTER_13
 70
     0
 40
0.0
 41
0.75
 50
0.0
 71
     0
 42
0.2
  3
txt.shx
  4

  0
ENDTAB
  0
TABLE
  2
VIEW
  5
6
330
0
100
AcDbSymbolTable
 70
     0
  0
ENDTAB
  0
TABLE
  2
UCS
  5
7
330
0
100
AcDbSymbolTable
 70
     0
  0
ENDTAB
  0
TABLE
  2
APPID
  5
9
330
0
100
AcDbSymbolTable
 70
     1
  0
APPID
  5
12
330
9
100
AcDbSymbolTableRecord
100
AcDbRegAppTableRecord
  2
ACAD
 70
     0
  0
ENDTAB
  0
TABLE
  2
DIMSTYLE
  5
A
330
0
100
AcDbSymbolTable
 70
    11
100
AcDbDimStyleTable
  0
DIMSTYLE
105
27
330
A
100
AcDbSymbolTableRecord
100
AcDbDimStyleTableRecord
  2
Standard
 70
     0
178
     0
340
11
  0
DIMSTYLE
105
581
102
{ACAD_REACTORS
330
582
102
}
330
A
100
AcDbSymbolTableRecord
100
AcDbDimStyleTableRecord
  2
ME10_DIM_10
 70
     0
 41
10.0
 42
4.0
 44
8.0
 73
     0
 74
     0
 77
     1
 78
    12
140
14.0
147
1.6
172
     1
173
     1
174
     1
175
     1
176
     7
177
     7
271
     2
178
     7
271
     2
340
57D
  0
DIMSTYLE
105
58C
102
{ACAD_REACTORS
330
58D
102
}
330
A
100
AcDbSymbolTableRecord
100
AcDbDimStyleTableRecord
  2
ME10_DIM_11
 70
     0
 41
10.0
 42
4.0
 44
8.0
 73
     0
 74
     0
 77
     1
 78
    12
140
14.0
147
1.6
172
     1
173
     1
174
     1
175
     1
176
     7
177
     7
271
     0
178
     7
271
     0
340
57D
  0
DIMSTYLE
105
597
102
{ACAD_REACTORS
330
598
102
}
330
A
100
AcDbSymbolTableRecord
100
AcDbDimStyleTableRecord
  2
ME10_DIM_12
 70
     0
 41
10.0
 42
4.0
 44
8.0
 73
     0
 74
     0
 77
     1
 78
    12
140
14.0
147
1.6
172
     1
173
     1
174
     1
175
     1
176
     7
177
     7
271
     2
178
     7
271
     2
340
57D
  0
DIMSTYLE
105
5A2
102
{ACAD_REACTORS
330
5A3
102
}
330
A
100
AcDbSymbolTableRecord
100
AcDbDimStyleTableRecord
  2
ME10_DIM_13
 70
     0
 41
10.0
 42
4.0
 44
8.0
 73
     0
 74
     0
 77
     1
 78
    12
140
14.0
147
1.6
172
     1
173
     1
174
     1
175
     1
176
     7
177
     7
271
     2
178
     7
271
     2
340
57D
  0
DIMSTYLE
105
5AD
102
{ACAD_REACTORS
330
5AE
102
}
330
A
100
AcDbSymbolTableRecord
100
AcDbDimStyleTableRecord
  2
ME10_DIM_14
 70
     0
 41
10.0
 42
4.0
 44
8.0
 73
     0
 74
     0
 77
     1
 78
    12
140
14.0
147
1.6
172
     1
173
     1
174
     1
175
     1
176
     7
177
     7
271
     2
178
     7
271
     2
340
57D
  0
DIMSTYLE
105
5BA
102
{ACAD_REACTORS
330
5BB
102
}
330
A
100
AcDbSymbolTableRecord
100
AcDbDimStyleTableRecord
  2
ME10_DIM_15
 70
     0
 41
10.0
 42
4.0
 44
8.0
 73
     0
 74
     0
 77
     1
 78
    12
140
14.0
147
1.6
172
     1
173
     1
174
     1
175
     1
176
     7
177
     7
271
     2
178
     7
271
     2
340
57D
  0
DIMSTYLE
105
5C5
102
{ACAD_REACTORS
330
5C6
102
}
330
A
100
AcDbSymbolTableRecord
100
AcDbDimStyleTableRecord
  2
ME10_DIM_16
 70
     0
 41
10.0
 42
4.0
 44
8.0
 73
     0
 74
     0
 77
     1
 78
    12
140
14.0
147
1.6
172
     1
173
     1
174
     1
175
     1
176
     7
177
     7
271
     2
178
     7
271
     2
340
57D
  0
DIMSTYLE
105
5D0
102
{ACAD_REACTORS
330
5D1
102
}
330
A
100
AcDbSymbolTableRecord
100
AcDbDimStyleTableRecord
  2
ME10_DIM_17
 70
     0
 41
10.0
 42
4.0
 44
8.0
 73
     0
 74
     0
 77
     1
 78
    12
140
14.0
147
1.6
172
     1
173
     1
174
     1
175
     1
176
     7
177
     7
271
     2
178
     7
271
     2
340
57D
  0
DIMSTYLE
105
5DB
102
{ACAD_REACTORS
330
5DC
102
}
330
A
100
AcDbSymbolTableRecord
100
AcDbDimStyleTableRecord
  2
ME10_DIM_18
 70
     0
 41
10.0
 42
4.0
 44
8.0
 73
     0
 74
     0
 77
     1
 78
    12
140
14.0
147
1.6
172
     1
173
     1
174
     1
175
     1
176
     7
177
     7
271
     2
178
     7
271
     2
340
57D
  0
DIMSTYLE
105
5E6
102
{ACAD_REACTORS
330
5E7
102
}
330
A
100
AcDbSymbolTableRecord
100
AcDbDimStyleTableRecord
  2
ME10_DIM_19
 70
     0
 41
10.0
 42
4.0
 44
8.0
 73
     0
 74
     0
 77
     1
 78
    12
140
14.0
147
1.6
172
     1
173
     1
174
     1
175
     1
176
     7
177
     7
271
     2
178
     7
271
     2
340
57D
  0
ENDTAB
  0
TABLE
  2
BLOCK_RECORD
  5
1
330
0
100
AcDbSymbolTable
 70
    13
  0
BLOCK_RECORD
  5
1F
330
1
100
AcDbSymbolTableRecord
100
AcDbBlockTableRecord
  2
*Model_Space
340
22
  0
BLOCK_RECORD
  5
1B
330
1
100
AcDbSymbolTableRecord
100
AcDbBlockTableRecord
  2
*Paper_Space
340
1E
  0
BLOCK_RECORD
  5
23
330
1
100
AcDbSymbolTableRecord
100
AcDbBlockTableRecord
  2
*Paper_Space0
340
26
  0
BLOCK_RECORD
  5
4F
330
1
100
AcDbSymbolTableRecord
100
AcDbBlockTableRecord
  2
_formato_A4
340
0
102
{BLKREFS
331
53
102
}
  0
BLOCK_RECORD
  5
52
330
1
100
AcDbSymbolTableRecord
100
AcDbBlockTableRecord
  2
A4_oriz
340
0
102
{BLKREFS
331
56
102
}
  0
BLOCK_RECORD
  5
577
330
1
100
AcDbSymbolTableRecord
100
AcDbBlockTableRecord
  2
*D3
340
0
  0
BLOCK_RECORD
  5
583
330
1
100
AcDbSymbolTableRecord
100
AcDbBlockTableRecord
  2
*D4
340
0
  0
BLOCK_RECORD
  5
58E
330
1
100
AcDbSymbolTableRecord
100
AcDbBlockTableRecord
  2
*D5
340
0
  0
BLOCK_RECORD
  5
599
330
1
100
AcDbSymbolTableRecord
100
AcDbBlockTableRecord
  2
*D6
340
0
  0
BLOCK_RECORD
  5
5A4
330
1
100
AcDbSymbolTableRecord
100
AcDbBlockTableRecord
  2
*D7
340
0
  0
BLOCK_RECORD
  5
5AF
330
1
100
AcDbSymbolTableRecord
100
AcDbBlockTableRecord
  2
*D8
340
0
  0
BLOCK_RECORD
  5
5BC
330
1
100
AcDbSymbolTableRecord
100
AcDbBlockTableRecord
  2
*D9
340
0
  0
BLOCK_RECORD
  5
5C7
330
1
100
AcDbSymbolTableRecord
100
AcDbBlockTableRecord
  2
*D10
340
0
  0
BLOCK_RECORD
  5
5D2
330
1
100
AcDbSymbolTableRecord
100
AcDbBlockTableRecord
  2
*D11
340
0
  0
BLOCK_RECORD
  5
5DD
330
1
100
AcDbSymbolTableRecord
100
AcDbBlockTableRecord
  2
*D12
340
0
  0
ENDTAB
  0
ENDSEC
  0
SECTION
  2
BLOCKS
  0
BLOCK
  5
20
330
1F
100
AcDbEntity
  8
0
100
AcDbBlockBegin
  2
*Model_Space
 70
     0
 10
0.0
 20
0.0
 30
0.0
  3
*Model_Space
  1

  0
ENDBLK
  5
21
330
1F
100
AcDbEntity
  8
0
100
AcDbBlockEnd
  0
BLOCK
  5
1C
330
1B
100
AcDbEntity
 67
     1
  8
0
100
AcDbBlockBegin
  2
*Paper_Space
 70
     0
 10
0.0
 20
0.0
 30
0.0
  3
*Paper_Space
  1

  0
ENDBLK
  5
1D
330
1B
100
AcDbEntity
 67
     1
  8
0
100
AcDbBlockEnd
  0
BLOCK
  5
24
330
23
100
AcDbEntity
  8
0
100
AcDbBlockBegin
  2
*Paper_Space0
 70
     0
 10
0.0
 20
0.0
 30
0.0
  3
*Paper_Space0
  1

  0
ENDBLK
  5
25
330
23
100
AcDbEntity
  8
0
100
AcDbBlockEnd
  0
BLOCK
  5
50
330
4F
100
AcDbEntity
  8
0
100
AcDbBlockBegin
  2
_formato_A4
 70
     0
 10
800.2604574368692
 20
63.192562512661
 30
0.0
  3
_formato_A4
  1

  0
LINE
  5
57
330
4F
100
AcDbEntity
  8
1
  6
Continuous
 62
     7
100
AcDbLine
 10
611.260457436869
 20
68.19256251266088
 30
0.0
 11
611.260457436869
 21
103.192562512661
 31
0.0
  0
LINE
  5
58
330
4F
100
AcDbEntity
  8
1
  6
Continuous
 62
     7
100
AcDbLine
 10
611.260457436869
 20
83.192562512661
 30
0.0
 11
795.2604574368692
 21
83.192562512661
 31
0.0
  0
LINE
  5
59
330
4F
100
AcDbEntity
  8
1
  6
Continuous
 62
     7
100
AcDbLine
 10
508.2604574368688
 20
252.1925625126609
 30
0.0
 11
508.2604574368688
 21
68.192562512661
 31
0.0
  0
LINE
  5
5A
330
4F
100
AcDbEntity
  8
1
  6
Continuous
 62
     7
100
AcDbLine
 10
636.2604574368692
 20
98.192562512661
 30
0.0
 11
636.2604574368692
 21
103.192562512661
 31
0.0
  0
LINE
  5
5B
330
4F
100
AcDbEntity
  8
1
  6
Continuous
 62
     7
100
AcDbLine
 10
618.260457436869
 20
98.192562512661
 30
0.0
 11
618.260457436869
 21
103.192562512661
 31
0.0
  0
LINE
  5
5C
330
4F
100
AcDbEntity
  8
1
  6
Continuous
 62
     7
100
AcDbLine
 10
611.260457436869
 20
103.192562512661
 30
0.0
 11
795.2604574368692
 21
103.192562512661
 31
0.0
  0
LINE
  5
5D
330
4F
100
AcDbEntity
  8
1
  6
Continuous
 62
     7
100
AcDbLine
 10
636.2604574368692
 20
93.192562512661
 30
0.0
 11
636.2604574368692
 21
98.192562512661
 31
0.0
  0
LINE
  5
5E
330
4F
100
AcDbEntity
  8
1
  6
Continuous
 62
     7
100
AcDbLine
 10
618.260457436869
 20
93.192562512661
 30
0.0
 11
618.260457436869
 21
98.192562512661
 31
0.0
  0
LINE
  5
5F
330
4F
100
AcDbEntity
  8
1
  6
Continuous
 62
     7
100
AcDbLine
 10
611.260457436869
 20
98.192562512661
 30
0.0
 11
795.2604574368692
 21
98.192562512661
 31
0.0
  0
LINE
  5
60
330
4F
100
AcDbEntity
  8
1
  6
Continuous
 62
     7
100
AcDbLine
 10
636.2604574368692
 20
88.192562512661
 30
0.0
 11
636.2604574368692
 21
93.192562512661
 31
0.0
  0
LINE
  5
61
330
4F
100
AcDbEntity
  8
1
  6
Continuous
 62
     7
100
AcDbLine
 10
618.260457436869
 20
88.192562512661
 30
0.0
 11
618.260457436869
 21
93.192562512661
 31
0.0
  0
LINE
  5
62
330
4F
100
AcDbEntity
  8
1
  6
Continuous
 62
     7
100
AcDbLine
 10
611.260457436869
 20
93.192562512661
 30
0.0
 11
795.2604574368692
 21
93.192562512661
 31
0.0
  0
LINE
  5
63
330
4F
100
AcDbEntity
  8
1
  6
Continuous
 62
     7
100
AcDbLine
 10
636.2604574368692
 20
83.192562512661
 30
0.0
 11
636.2604574368692
 21
88.192562512661
 31
0.0
  0
LINE
  5
64
330
4F
100
AcDbEntity
  8
1
  6
Continuous
 62
     7
100
AcDbLine
 10
618.260457436869
 20
83.192562512661
 30
0.0
 11
618.260457436869
 21
88.192562512661
 31
0.0
  0
LINE
  5
65
330
4F
100
AcDbEntity
  8
1
  6
Continuous
 62
     7
100
AcDbLine
 10
611.260457436869
 20
88.192562512661
 30
0.0
 11
795.2604574368692
 21
88.192562512661
 31
0.0
  0
LINE
  5
66
102
{ACAD_REACTORS
330
AE
102
}
330
4F
100
AcDbEntity
  8
1
  6
Continuous
 62
     7
100
AcDbLine
 10
786.103332276775
 20
73.75056459304133
 30
0.0
 11
784.7699989434417
 21
72.98133382381073
 31
0.0
  0
LINE
  5
67
102
{ACAD_REACTORS
330
AE
102
}
330
4F
100
AcDbEntity
  8
1
  6
Continuous
 62
     7
100
AcDbLine
 10
784.9367581256117
 20
73.84719904530894
 30
0.0
 11
785.7701839744485
 21
74.32802165040724
 31
0.0
  0
LINE
  5
68
102
{ACAD_REACTORS
330
AE
102
}
330
4F
100
AcDbEntity
  8
1
  6
Continuous
 62
     7
100
AcDbLine
 10
784.9367581256117
 20
75.35922917932763
 30
0.0
 11
784.9367581256117
 21
73.84719904530894
 31
0.0
  0
LINE
  5
69
102
{ACAD_REACTORS
330
AE
102
}
330
4F
100
AcDbEntity
  8
1
  6
Continuous
 62
     7
100
AcDbLine
 10
785.9367581256117
 20
75.35922917932763
 30
0.0
 11
784.9367581256117
 21
75.35922917932763
 31
0.0
  0
LINE
  5
6A
102
{ACAD_REACTORS
330
AE
102
}
330
4F
100
AcDbEntity
  8
1
  6
Continuous
 62
     7
100
AcDbLine
 10
784.9367581256117
 20
76.02589584599426
 30
0.0
 11
785.9367581256117
 21
76.02589584599426
 31
0.0
  0
LINE
  5
6B
102
{ACAD_REACTORS
330
AE
102
}
330
4F
100
AcDbEntity
  8
1
  6
Continuous
 62
     7
100
AcDbLine
 10
784.9367581256117
 20
77.53792598001294
 30
0.0
 11
784.9367581256117
 21
76.02589584599426
 31
0.0
  0
LINE
  5
6C
102
{ACAD_REACTORS
330
AE
102
}
330
4F
100
AcDbEntity
  8
1
  6
Continuous
 62
     7
100
AcDbLine
 10
785.7701839744485
 20
77.05710337491476
 30
0.0
 11
784.9367581256117
 21
77.53792598001294
 31
0.0
  0
LINE
  5
6D
102
{ACAD_REACTORS
330
AE
102
}
330
4F
100
AcDbEntity
  8
1
  6
Continuous
 62
     7
100
AcDbLine
 10
784.7699989434417
 20
78.40379120151127
 30
0.0
 11
786.103332276775
 21
77.63456043228044
 31
0.0
  0
LINE
  5
6E
102
{ACAD_REACTORS
330
AF
102
}
330
4F
100
AcDbEntity
  8
1
  6
Continuous
 62
     7
100
AcDbLine
 10
777.6034247922785
 20
74.03929312172423
 30
0.0
 11
777.6034247922785
 21
77.34583190359766
 31
0.0
  0
LINE
  5
6F
102
{ACAD_REACTORS
330
AF
102
}
330
4F
100
AcDbEntity
  8
1
  6
Continuous
 62
     7
100
AcDbLine
 10
778.2700914589451
 20
74.2318144299243
 30
0.0
 11
778.2700914589451
 21
74.03929312172423
 31
0.0
  0
LINE
  5
70
102
{ACAD_REACTORS
330
AF
102
}
330
4F
100
AcDbEntity
  8
1
  6
Continuous
 62
     7
100
AcDbLine
 10
778.2700914589451
 20
77.34583190359766
 30
0.0
 11
778.2700914589451
 21
74.2318144299243
 31
0.0
  0
LINE
  5
71
102
{ACAD_REACTORS
330
B0
102
}
330
4F
100
AcDbEntity
  8
1
  6
Continuous
 62
     7
100
AcDbLine
 10
781.4368506411153
 20
71.6351799776568
 30
0.0
 11
779.2702764899522
 21
72.8851266033279
 31
0.0
  0
LINE
  5
72
102
{ACAD_REACTORS
330
B0
102
}
330
4F
100
AcDbEntity
  8
1
  6
Continuous
 62
     7
100
AcDbLine
 10
779.6034247922785
 20
73.4625836606937
 30
0.0
 11
781.7699989434417
 21
72.2126370350226
 31
0.0
  0
LINE
  5
73
102
{ACAD_REACTORS
330
B0
102
}
330
4F
100
AcDbEntity
  8
1
  6
Continuous
 62
     7
100
AcDbLine
 10
779.6034247922785
 20
78.11506267282837
 30
0.0
 11
779.6034247922785
 21
73.4625836606937
 31
0.0
  0
LINE
  5
74
102
{ACAD_REACTORS
330
B0
102
}
330
4F
100
AcDbEntity
  8
1
  6
Continuous
 62
     7
100
AcDbLine
 10
778.9367581256117
 20
73.46258366069358
 30
0.0
 11
778.9367581256117
 21
78.11506267282837
 31
0.0
  0
LINE
  5
75
102
{ACAD_REACTORS
330
B1
102
}
330
4F
100
AcDbEntity
  8
1
  6
Continuous
 62
     7
100
AcDbLine
 10
783.108991108655
 20
79.05626293093329
 30
0.0
 11
781.9367581256117
 21
77.02589584599426
 31
0.0
  0
LINE
  5
76
102
{ACAD_REACTORS
330
B1
102
}
330
4F
100
AcDbEntity
  8
1
  6
Continuous
 62
     7
100
AcDbLine
 10
783.6034247922785
 20
72.5008315832628
 30
0.0
 11
783.6034247922785
 21
78.92377982469557
 31
0.0
  0
LINE
  5
77
102
{ACAD_REACTORS
330
B1
102
}
330
4F
100
AcDbEntity
  8
1
  6
Continuous
 62
     7
100
AcDbLine
 10
782.9367581256117
 20
75.692562512661
 30
0.0
 11
782.9367581256117
 21
72.5008315832628
 31
0.0
  0
LINE
  5
78
102
{ACAD_REACTORS
330
B1
102
}
330
4F
100
AcDbEntity
  8
1
  6
Continuous
 62
     7
100
AcDbLine
 10
780.9367581256117
 20
74.04014758529391
 30
0.0
 11
780.9367581256117
 21
75.692562512661
 31
0.0
  0
LINE
  5
79
102
{ACAD_REACTORS
330
B1
102
}
330
4F
100
AcDbEntity
  8
1
  6
Continuous
 62
     7
100
AcDbLine
 10
780.2700914589451
 20
75.692562512661
 30
0.0
 11
780.2700914589451
 21
74.04014758529391
 31
0.0
  0
LINE
  5
7A
102
{ACAD_REACTORS
330
B1
102
}
330
4F
100
AcDbEntity
  8
1
  6
Continuous
 62
     7
100
AcDbLine
 10
780.7645251425686
 20
79.05626293093329
 30
0.0
 11
781.9367581256117
 21
77.02589584599426
 31
0.0
  0
LINE
  5
7B
102
{ACAD_REACTORS
330
B1
102
}
330
4F
100
AcDbEntity
  8
1
  6
Continuous
 62
     7
100
AcDbLine
 10
780.2700914589451
 20
75.692562512661
 30
0.0
 11
780.2700914589451
 21
78.92377982469557
 31
0.0
  0
LINE
  5
7C
330
4F
100
AcDbEntity
  8
1
  6
Continuous
 62
     7
100
AcDbLine
 10
781.9367581256117
 20
70.692562512661
 30
0.0
 11
773.5203228504703
 21
75.54819824831955
 31
0.0
  0
LINE
  5
7D
330
4F
100
AcDbEntity
  8
1
  6
Continuous
 62
     7
100
AcDbLine
 10
790.3531934007532
 20
75.54819824831955
 30
0.0
 11
781.9367581256117
 21
70.692562512661
 31
0.0
  0
LINE
  5
7E
330
4F
100
AcDbEntity
  8
1
  6
Continuous
 62
     7
100
AcDbLine
 10
781.9367581256117
 20
80.692562512661
 30
0.0
 11
790.3531934007532
 21
75.83692677700233
 31
0.0
  0
LINE
  5
7F
330
4F
100
AcDbEntity
  8
1
  6
Continuous
 62
     7
100
AcDbLine
 10
773.5203228504703
 20
75.83692677700233
 30
0.0
 11
781.9367581256117
 21
80.692562512661
 31
0.0
  0
LINE
  5
80
102
{ACAD_REACTORS
330
B1
102
}
330
4F
100
AcDbEntity
  8
1
  6
Continuous
 62
     7
100
AcDbLine
 10
780.9367581256117
 20
77.42461332022984
 30
0.0
 11
780.9367581256117
 21
75.692562512661
 31
0.0
  0
LINE
  5
81
102
{ACAD_REACTORS
330
B1
102
}
330
4F
100
AcDbEntity
  8
1
  6
Continuous
 62
     7
100
AcDbLine
 10
781.7924205583142
 20
75.942562512661
 30
0.0
 11
780.9367581256117
 21
77.42461332022984
 31
0.0
  0
LINE
  5
82
102
{ACAD_REACTORS
330
B1
102
}
330
4F
100
AcDbEntity
  8
1
  6
Continuous
 62
     7
100
AcDbLine
 10
782.9367581256117
 20
77.42461332022984
 30
0.0
 11
782.0810956929091
 21
75.942562512661
 31
0.0
  0
LINE
  5
83
102
{ACAD_REACTORS
330
B1
102
}
330
4F
100
AcDbEntity
  8
1
  6
Continuous
 62
     7
100
AcDbLine
 10
782.9367581256117
 20
75.692562512661
 30
0.0
 11
782.9367581256117
 21
77.42461332022984
 31
0.0
  0
LINE
  5
84
102
{ACAD_REACTORS
330
AE
102
}
330
4F
100
AcDbEntity
  8
1
  6
Continuous
 62
     7
100
AcDbLine
 10
784.2700914589451
 20
73.27006235249362
 30
0.0
 11
784.2700914589451
 21
78.11506267282837
 31
0.0
  0
LINE
  5
85
330
4F
100
AcDbEntity
  8
1
  6
Continuous
 62
     7
100
AcDbLine
 10
795.2604574368692
 20
252.1925625126609
 30
0.0
 11
508.2604574368688
 21
252.1925625126609
 31
0.0
  0
LINE
  5
86
330
4F
100
AcDbEntity
  8
1
  6
Continuous
 62
     7
100
AcDbLine
 10
795.2604574368692
 20
68.192562512661
 30
0.0
 11
795.2604574368692
 21
252.1925625126609
 31
0.0
  0
LINE
  5
87
330
4F
100
AcDbEntity
  8
1
  6
Continuous
 62
     7
100
AcDbLine
 10
508.2604574368688
 20
68.192562512661
 30
0.0
 11
795.2604574368692
 21
68.192562512661
 31
0.0
  0
LINE
  5
88
330
4F
100
AcDbEntity
  8
1
  6
Continuous
 62
     7
100
AcDbLine
 10
800.2604574368692
 20
63.192562512661
 30
0.0
 11
800.2604574368692
 21
273.1925625126611
 31
0.0
  0
LINE
  5
89
330
4F
100
AcDbEntity
  8
1
  6
Continuous
 62
     7
100
AcDbLine
 10
800.2604574368692
 20
273.1925625126611
 30
0.0
 11
503.2604574368691
 21
273.1925625126611
 31
0.0
  0
LINE
  5
8A
330
4F
100
AcDbEntity
  8
1
  6
Continuous
 62
     7
100
AcDbLine
 10
503.2604574368691
 20
273.1925625126611
 30
0.0
 11
503.2604574368691
 21
63.192562512661
 31
0.0
  0
LINE
  5
8B
330
4F
100
AcDbEntity
  8
1
  6
Continuous
 62
     7
100
AcDbLine
 10
503.2604574368691
 20
63.192562512661
 30
0.0
 11
800.2604574368692
 21
63.192562512661
 31
0.0
  0
LINE
  5
8C
330
4F
100
AcDbEntity
  8
1
  6
Continuous
 62
     7
100
AcDbLine
 10
651.7604574368687
 20
273.1925625126611
 30
0.0
 11
651.7604574368687
 21
258.1925625126611
 31
0.0
  0
LINE
  5
8D
330
4F
100
AcDbEntity
  8
1
  6
Continuous
 62
     7
100
AcDbLine
 10
641.260457436869
 20
83.192562512661
 30
0.0
 11
641.260457436869
 21
68.192562512661
 31
0.0
  0
LINE
  5
8E
330
4F
100
AcDbEntity
  8
1
  6
Continuous
 62
     7
100
AcDbLine
 10
768.6130588143545
 20
83.192562512661
 30
0.0
 11
768.6130588143545
 21
68.192562512661
 31
0.0
  0
LINE
  5
8F
330
4F
100
AcDbEntity
  8
1
  6
Continuous
 62
     7
100
AcDbLine
 10
751.2604574368692
 20
83.192562512661
 30
0.0
 11
751.2604574368692
 21
68.192562512661
 31
0.0
  0
LINE
  5
90
330
4F
100
AcDbEntity
  8
1
  6
Continuous
 62
     7
100
AcDbLine
 10
611.260457436869
 20
78.19256251266088
 30
0.0
 11
641.260457436869
 21
78.19256251266088
 31
0.0
  0
LINE
  5
91
330
4F
100
AcDbEntity
  8
1
  6
Continuous
 62
     7
100
AcDbLine
 10
611.260457436869
 20
73.19256251266086
 30
0.0
 11
641.260457436869
 21
73.19256251266086
 31
0.0
  0
ARC
  5
92
102
{ACAD_REACTORS
330
AE
102
}
330
4F
100
AcDbEntity
  8
1
  6
Continuous
 62
     7
100
AcDbCircle
 10
785.9367581256117
 20
74.03929312172423
 30
0.0
 40
0.3333333333333709
100
AcDbArc
 50
299.9816393688506
 51
119.9816393688409
  0
ARC
  5
93
102
{ACAD_REACTORS
330
AE
102
}
330
4F
100
AcDbEntity
  8
1
  6
Continuous
 62
     7
100
AcDbCircle
 10
785.9367581256117
 20
75.692562512661
 30
0.0
 40
0.3333333333333712
100
AcDbArc
 50
270.0
 51
90.0
  0
ARC
  5
94
102
{ACAD_REACTORS
330
AE
102
}
330
4F
100
AcDbEntity
  8
1
  6
Continuous
 62
     7
100
AcDbCircle
 10
785.9367581256117
 20
77.34583190359766
 30
0.0
 40
0.3333333333333709
100
AcDbArc
 50
240.0183606311493
 51
60.01836063113959
  0
ARC
  5
95
102
{ACAD_REACTORS
330
AF
102
}
330
4F
100
AcDbEntity
  8
1
  6
Continuous
 62
     7
100
AcDbCircle
 10
777.9367581256117
 20
74.03929312172423
 30
0.0
 40
0.3333333333332575
100
AcDbArc
 50
180.0
 51
0.0
  0
ARC
  5
96
102
{ACAD_REACTORS
330
AF
102
}
330
4F
100
AcDbEntity
  8
1
  6
Continuous
 62
     7
100
AcDbCircle
 10
777.9367581256117
 20
77.34583190359766
 30
0.0
 40
0.3333333333333712
100
AcDbArc
 50
0.0
 51
180.0
  0
ARC
  5
97
102
{ACAD_REACTORS
330
B0
102
}
330
4F
100
AcDbEntity
  8
1
  6
Continuous
 62
     7
100
AcDbCircle
 10
781.6034247922785
 20
71.9239085063397
 30
0.0
 40
0.3333333333333709
100
AcDbArc
 50
240.0183606311493
 51
60.01836063114937
  0
ARC
  5
98
102
{ACAD_REACTORS
330
B0
102
}
330
4F
100
AcDbEntity
  8
1
  6
Continuous
 62
     7
100
AcDbCircle
 10
779.2700914589451
 20
78.11506267282837
 30
0.0
 40
0.3333333333333712
100
AcDbArc
 50
0.0
 51
180.0
  0
ARC
  5
99
102
{ACAD_REACTORS
330
B1
102
}
330
4F
100
AcDbEntity
  8
1
  6
Continuous
 62
     7
100
AcDbCircle
 10
783.3384585798032
 20
78.92377982469557
 30
0.0
 40
0.2649662124753149
100
AcDbArc
 50
0.0
 51
149.9999999999879
  0
ARC
  5
9A
102
{ACAD_REACTORS
330
B1
102
}
330
4F
100
AcDbEntity
  8
1
  6
Continuous
 62
     7
100
AcDbCircle
 10
783.2700914589451
 20
72.5008315832628
 30
0.0
 40
0.3333333333333712
100
AcDbArc
 50
180.0
 51
0.0
  0
ARC
  5
9B
102
{ACAD_REACTORS
330
B1
102
}
330
4F
100
AcDbEntity
  8
1
  6
Continuous
 62
     7
100
AcDbCircle
 10
780.6034247922785
 20
74.04014758529391
 30
0.0
 40
0.3333333333333712
100
AcDbArc
 50
180.0
 51
0.0
  0
ARC
  5
9C
102
{ACAD_REACTORS
330
B1
102
}
330
4F
100
AcDbEntity
  8
1
  6
Continuous
 62
     7
100
AcDbCircle
 10
780.5350576714203
 20
78.92377982469557
 30
0.0
 40
0.2649662124754304
100
AcDbArc
 50
29.99999999999978
 51
180.0
  0
ARC
  5
9D
102
{ACAD_REACTORS
330
AE
102
}
330
4F
100
AcDbEntity
  8
1
  6
Continuous
 62
     7
100
AcDbCircle
 10
784.6034247922785
 20
73.27006235249362
 30
0.0
 40
0.3333333333333712
100
AcDbArc
 50
180.0
 51
299.9816393688506
  0
ARC
  5
9E
102
{ACAD_REACTORS
330
AE
102
}
330
4F
100
AcDbEntity
  8
1
  6
Continuous
 62
     7
100
AcDbCircle
 10
784.6034247922785
 20
78.11506267282837
 30
0.0
 40
0.3333333333333709
100
AcDbArc
 50
60.01836063114937
 51
180.0
  0
ARC
  5
9F
330
4F
100
AcDbEntity
  8
1
  6
Continuous
 62
     7
100
AcDbCircle
 10
790.2699063251716
 20
75.692562512661
 30
0.0
 40
0.1666666666666571
100
AcDbArc
 50
299.9816393688337
 51
60.01836063114676
  0
ARC
  5
A0
330
4F
100
AcDbEntity
  8
1
  6
Continuous
 62
     7
100
AcDbCircle
 10
773.6036099260518
 20
75.692562512661
 30
0.0
 40
0.1666666666665586
100
AcDbArc
 50
119.9816393688532
 51
240.0183606311663
  0
ARC
  5
A1
102
{ACAD_REACTORS
330
B0
102
}
330
4F
100
AcDbEntity
  8
1
  6
Continuous
 62
     7
100
AcDbCircle
 10
779.6034247922785
 20
73.4625836606937
 30
0.0
 40
0.6666666666667425
100
AcDbArc
 50
180.0000000000097
 51
240.0183606311578
  0
ARC
  5
A2
102
{ACAD_REACTORS
330
B1
102
}
330
4F
100
AcDbEntity
  8
1
  6
Continuous
 62
     7
100
AcDbCircle
 10
781.9367581256117
 20
76.02589584599426
 30
0.0
 40
0.1666666666667081
100
AcDbArc
 50
209.9999999999617
 51
330.0000000000188
  0
MTEXT
  5
A4
330
4F
100
AcDbEntity
  8
1
 62
     7
100
AcDbMText
 10
759.9367581256117
 20
73.25320193341705
 30
0.0
 40
4.5
 41
0.0
 71
     5
 72
     1
  1
1:2
  7
CONVERTER_11
 73
     1
 44
1.32052821128451
  0
MTEXT
  5
A5
330
4F
100
AcDbEntity
  8
1
 62
     7
100
AcDbMText
 10
759.9367581256117
 20
79.45320193341698
 30
0.0
 40
3.0
 41
0.0
 71
     5
 72
     1
  1
Scale
  7
CONVERTER_11
 73
     1
 44
1.32052821128451
  0
MTEXT
  5
A6
330
4F
100
AcDbEntity
  8
1
 62
     7
100
AcDbMText
 10
647.5367581256118
 20
75.692562512661
 30
0.0
 40
4.5
 41
0.0
 71
     4
 72
     1
  1
JCVP 24 LP\PSurface mounting housing, 1 lever + cover, PG21 - JEI
  7
CONVERTER_11
 73
     1
 44
0.90036014405762
  0
MTEXT
  5
A7
330
4F
100
AcDbEntity
  8
1
 62
     7
100
AcDbMText
 10
654.7604574368687
 20
257.1925625126611
 30
0.0
 40
4.0
 41
0.0
 71
     5
 72
     1
  1
Diritti riservati      All rights reserved
  7
CONVERTER_11
 73
     1
 44
1.32052821128451
  0
MTEXT
  5
A9
330
4F
100
AcDbEntity
  8
1
 62
     7
100
AcDbMText
 10
626.260457436869
 20
80.69256251266094
 30
0.0
 40
2.5
 41
0.0
 71
     5
 72
     1
  1
dimensions in mm
  7
CONVERTER_12
 73
     1
 44
0.60024009603842
  0
MTEXT
  5
AA
330
4F
100
AcDbEntity
  8
1
 62
     7
100
AcDbMText
 10
612.260457436869
 20
75.69256251266088
 30
0.0
 40
3.0
 41
0.0
 71
     4
 72
     1
  1
Date
  7
CONVERTER_11
 73
     1
 44
1.32052821128451
  0
MTEXT
  5
AB
330
4F
100
AcDbEntity
  8
1
 62
     7
100
AcDbMText
 10
622.8604574368691
 20
75.69256251266088
 30
0.0
 40
3.0
 41
0.0
 71
     4
 72
     1
  1
19/06/14
  7
CONVERTER_11
 73
     1
 44
1.32052821128451
  0
MTEXT
  5
AC
330
4F
100
AcDbEntity
  8
1
 62
     7
100
AcDbMText
 10
612.260457436869
 20
70.69256251266086
 30
0.0
 40
3.0
 41
0.0
 71
     4
 72
     1
  1
Sign.
  7
CONVERTER_11
 73
     1
 44
1.32052821128451
  0
MTEXT
  5
AD
330
4F
100
AcDbEntity
  8
1
 62
     7
100
AcDbMText
 10
622.8604574368691
 20
70.69256251266086
 30
0.0
 40
3.0
 41
0.0
 71
     4
 72
     1
  1
Radice
  7
CONVERTER_11
 73
     1
 44
1.32052821128451
  0
HATCH
  5
AE
330
4F
100
AcDbEntity
  8
1
  6
Continuous
 62
     7
100
AcDbHatch
 10
0.0
 20
0.0
 30
0.0
210
0.0
220
0.0
230
1.0
  2
SOLID
 70
     1
 71
     1
 91
        1
 92
        1
 93
       14
 72
     2
 10
784.6034247922785
 20
78.11506267282837
 40
0.3333333333333709
 50
60.01836063114937
 51
180.0
 73
     1
 72
     1
 10
784.2700914589451
 20
78.11506267282837
 11
784.2700914589451
 21
73.27006235249362
 72
     2
 10
784.6034247922785
 20
73.27006235249362
 40
0.3333333333333712
 50
180.0
 51
299.9816393688506
 73
     1
 72
     1
 10
784.7699989434417
 20
72.98133382381073
 11
786.103332276775
 21
73.75056459304133
 72
     2
 10
785.9367581256117
 20
74.03929312172423
 40
0.3333333333333709
 50
299.9816393688506
 51
479.9816393688409
 73
     1
 72
     1
 10
785.7701839744485
 20
74.32802165040724
 11
784.9367581256117
 21
73.84719904530894
 72
     1
 10
784.9367581256117
 20
73.84719904530894
 11
784.9367581256117
 21
75.35922917932763
 72
     1
 10
784.9367581256117
 20
75.35922917932763
 11
785.9367581256117
 21
75.35922917932763
 72
     2
 10
785.9367581256117
 20
75.692562512661
 40
0.3333333333333712
 50
270.0
 51
450.0
 73
     1
 72
     1
 10
785.9367581256117
 20
76.02589584599426
 11
784.9367581256117
 21
76.02589584599426
 72
     1
 10
784.9367581256117
 20
76.02589584599426
 11
784.9367581256117
 21
77.53792598001294
 72
     1
 10
784.9367581256117
 20
77.53792598001294
 11
785.7701839744485
 21
77.05710337491476
 72
     2
 10
785.9367581256117
 20
77.34583190359766
 40
0.3333333333333709
 50
240.0183606311493
 51
420.0183606311396
 73
     1
 72
     1
 10
786.103332276775
 20
77.63456043228044
 11
784.7699989434417
 21
78.40379120151127
 97
       14
330
94
330
6C
330
6B
330
6A
330
93
330
69
330
68
330
67
330
92
330
66
330
9D
330
84
330
9E
330
6D
 75
     0
 76
     1
 98
        1
 10
0.0
 20
0.0
  0
HATCH
  5
AF
330
4F
100
AcDbEntity
  8
1
  6
Continuous
 62
     7
100
AcDbHatch
 10
0.0
 20
0.0
 30
0.0
210
0.0
220
0.0
230
1.0
  2
SOLID
 70
     1
 71
     1
 91
        1
 92
        1
 93
        5
 72
     2
 10
777.9367581256117
 20
77.34583190359766
 40
0.3333333333333712
 50
0.0
 51
180.0
 73
     1
 72
     1
 10
777.6034247922785
 20
77.34583190359766
 11
777.6034247922785
 21
74.03929312172423
 72
     2
 10
777.9367581256117
 20
74.03929312172423
 40
0.3333333333332575
 50
180.0
 51
360.0
 73
     1
 72
     1
 10
778.2700914589451
 20
74.03929312172423
 11
778.2700914589451
 21
74.2318144299243
 72
     1
 10
778.2700914589451
 20
74.2318144299243
 11
778.2700914589451
 21
77.34583190359766
 97
        5
330
96
330
6E
330
95
330
6F
330
70
 75
     0
 76
     1
 98
        1
 10
0.0
 20
0.0
  0
HATCH
  5
B0
330
4F
100
AcDbEntity
  8
1
  6
Continuous
 62
     7
100
AcDbHatch
 10
0.0
 20
0.0
 30
0.0
210
0.0
220
0.0
230
1.0
  2
SOLID
 70
     1
 71
     1
 91
        1
 92
        1
 93
        7
 72
     2
 10
779.2700914589451
 20
78.11506267282837
 40
0.3333333333333712
 50
0.0
 51
180.0
 73
     1
 72
     1
 10
778.9367581256117
 20
78.11506267282837
 11
778.9367581256117
 21
73.46258366069358
 72
     2
 10
779.6034247922785
 20
73.4625836606937
 40
0.6666666666667425
 50
180.0000000000097
 51
240.0183606311578
 73
     1
 72
     1
 10
779.2702764899522
 20
72.8851266033279
 11
781.4368506411153
 21
71.6351799776568
 72
     2
 10
781.6034247922785
 20
71.9239085063397
 40
0.3333333333333709
 50
240.0183606311493
 51
420.0183606311494
 73
     1
 72
     1
 10
781.7699989434417
 20
72.2126370350226
 11
779.6034247922785
 21
73.4625836606937
 72
     1
 10
779.6034247922785
 20
73.4625836606937
 11
779.6034247922785
 21
78.11506267282837
 97
        7
330
98
330
74
330
A1
330
71
330
97
330
72
330
73
 75
     0
 76
     1
 98
        1
 10
0.0
 20
0.0
  0
HATCH
  5
B1
330
4F
100
AcDbEntity
  8
1
  6
Continuous
 62
     7
100
AcDbHatch
 10
0.0
 20
0.0
 30
0.0
210
0.0
220
0.0
230
1.0
  2
SOLID
 70
     1
 71
     1
 91
        1
 92
        1
 93
       16
 72
     2
 10
783.3384585798032
 20
78.92377982469557
 40
0.2649662124753149
 50
210.0000000000121
 51
360.0
 73
     0
 72
     1
 10
783.6034247922785
 20
78.92377982469557
 11
783.6034247922785
 21
72.5008315832628
 72
     2
 10
783.2700914589451
 20
72.5008315832628
 40
0.3333333333333712
 50
0.0
 51
180.0
 73
     0
 72
     1
 10
782.9367581256117
 20
72.5008315832628
 11
782.9367581256117
 21
75.692562512661
 72
     1
 10
782.9367581256117
 20
75.692562512661
 11
782.9367581256117
 21
77.42461332022984
 72
     1
 10
782.9367581256117
 20
77.42461332022984
 11
782.0810956929091
 21
75.942562512661
 72
     2
 10
781.9367581256117
 20
76.02589584599426
 40
0.1666666666667081
 50
29.99999999998124
 51
150.0000000000383
 73
     0
 72
     1
 10
781.7924205583142
 20
75.942562512661
 11
780.9367581256117
 21
77.42461332022984
 72
     1
 10
780.9367581256117
 20
77.42461332022984
 11
780.9367581256117
 21
75.692562512661
 72
     1
 10
780.9367581256117
 20
75.692562512661
 11
780.9367581256117
 21
74.04014758529391
 72
     2
 10
780.6034247922785
 20
74.04014758529391
 40
0.3333333333333712
 50
0.0
 51
180.0
 73
     0
 72
     1
 10
780.2700914589451
 20
74.04014758529391
 11
780.2700914589451
 21
75.692562512661
 72
     1
 10
780.2700914589451
 20
75.692562512661
 11
780.2700914589451
 21
78.92377982469557
 72
     2
 10
780.5350576714203
 20
78.92377982469557
 40
0.2649662124754304
 50
180.0
 51
330.0000000000002
 73
     0
 72
     1
 10
780.7645251425686
 20
79.05626293093329
 11
781.9367581256117
 21
77.02589584599426
 72
     1
 10
781.9367581256117
 20
77.02589584599426
 11
783.108991108655
 21
79.05626293093329
 97
       16
330
7A
330
9C
330
7B
330
79
330
9B
330
78
330
80
330
81
330
A2
330
82
330
83
330
77
330
9A
330
76
330
99
330
75
 75
     0
 76
     1
 98
        1
 10
0.0
 20
0.0
  0
ENDBLK
  5
51
330
4F
100
AcDbEntity
  8
0
100
AcDbBlockEnd
  0
BLOCK
  5
54
330
52
100
AcDbEntity
  8
0
100
AcDbBlockBegin
  2
A4_oriz
 70
     0
 10
594.0000000000002
 20
0.0
 30
0.0
  3
A4_oriz
  1

  0
INSERT
  5
53
330
52
100
AcDbEntity
  8
1
100
AcDbBlockReference
  2
_formato_A4
 10
594.0000000000001
 20
0.0
 30
0.0
 41
2.0
 42
2.0
 43
2.0
  0
ENDBLK
  5
55
330
52
100
AcDbEntity
  8
0
100
AcDbBlockEnd
  0
BLOCK
  5
57F
330
577
100
AcDbEntity
  8
0
100
AcDbBlockBegin
  2
*D3
 70
     1
 10
0.0
 20
0.0
 30
0.0
  3
*D3
  1

  0
LINE
  5
578
330
577
100
AcDbEntity
  8
Bemaßungen_TC_020513_DIN_
  6
Continuous
 62
     7
100
AcDbLine
 10
301.0930775719742
 20
205.0547964509449
 30
0.0
 11
301.0930775719742
 21
175.9507964509448
 31
0.0
  0
LINE
  5
579
330
577
100
AcDbEntity
  8
Bemaßungen_TC_020513_DIN_
  6
Continuous
 62
     7
100
AcDbLine
 10
273.9025303082932
 20
205.054796450945
 30
0.0
 11
309.0930775719742
 21
205.054796450945
 31
0.0
  0
LINE
  5
57A
330
577
100
AcDbEntity
  8
Bemaßungen_TC_020513_DIN_
  6
Continuous
 62
     7
100
AcDbLine
 10
273.9025303082932
 20
175.950796450945
 30
0.0
 11
309.0930775719742
 21
175.950796450945
 31
0.0
  0
SOLID
  5
57B
330
577
100
AcDbEntity
  8
Bemaßungen_TC_020513_DIN_
 62
     7
100
AcDbTrace
 10
302.4096025478481
 20
195.0547964509449
 30
0.0
 11
299.7765525961002
 21
195.0547964509449
 31
0.0
 12
301.0930775719742
 22
205.0547964509449
 32
0.0
 13
301.0930775719742
 23
205.0547964509449
 33
0.0
  0
SOLID
  5
57C
330
577
100
AcDbEntity
  8
Bemaßungen_TC_020513_DIN_
 62
     7
100
AcDbTrace
 10
299.7765525961002
 20
185.9507964509448
 30
0.0
 11
302.4096025478481
 21
185.9507964509448
 31
0.0
 12
301.0930775719742
 22
175.9507964509448
 32
0.0
 13
301.0930775719742
 23
175.9507964509448
 33
0.0
  0
MTEXT
  5
57E
330
577
100
AcDbEntity
  8
Bemaßungen_TC_020513_DIN_
 62
     7
100
AcDbMText
 10
294.8150292053488
 20
176.5394994977843
 30
0.0
 40
14.0
 41
0.0
 71
     7
 72
     1
  1
PG21
  7
CONVERTER_13
 11
0.0
 21
1.0
 31
0.0
 73
     1
 44
0.45454545454545
  0
ENDBLK
  5
580
330
577
100
AcDbEntity
  8
0
100
AcDbBlockEnd
  0
BLOCK
  5
58A
330
583
100
AcDbEntity
  8
0
100
AcDbBlockBegin
  2
*D4
 70
     1
 10
0.0
 20
0.0
 30
0.0
  3
*D4
  1

  0
LINE
  5
584
330
583
100
AcDbEntity
  8
Bemaßungen_TC_020513_DIN_
  6
Continuous
 62
     7
100
AcDbLine
 10
345.5050965808491
 20
322.474487993233
 30
0.0
 11
438.6890465525677
 21
322.474487993233
 31
0.0
  0
LINE
  5
585
330
583
100
AcDbEntity
  8
Bemaßungen_TC_020513_DIN_
  6
Continuous
 62
     7
100
AcDbLine
 10
345.5050965808492
 20
294.612796450945
 30
0.0
 11
345.5050965808492
 21
330.474487993233
 31
0.0
  0
LINE
  5
586
330
583
100
AcDbEntity
  8
Bemaßungen_TC_020513_DIN_
  6
Continuous
 62
     7
100
AcDbLine
 10
438.6890465525682
 20
220.112796450945
 30
0.0
 11
438.6890465525682
 21
330.474487993233
 31
0.0
  0
SOLID
  5
587
330
583
100
AcDbEntity
  8
Bemaßungen_TC_020513_DIN_
 62
     7
100
AcDbTrace
 10
355.5050965808491
 20
323.791012969107
 30
0.0
 11
355.5050965808491
 21
321.1579630173591
 31
0.0
 12
345.5050965808491
 22
322.474487993233
 32
0.0
 13
345.5050965808491
 23
322.474487993233
 33
0.0
  0
SOLID
  5
588
330
583
100
AcDbEntity
  8
Bemaßungen_TC_020513_DIN_
 62
     7
100
AcDbTrace
 10
428.6890465525677
 20
321.1579630173591
 30
0.0
 11
428.6890465525677
 21
323.791012969107
 31
0.0
 12
438.6890465525677
 22
322.474487993233
 32
0.0
 13
438.6890465525677
 23
322.474487993233
 33
0.0
  0
MTEXT
  5
589
330
583
100
AcDbEntity
  8
Bemaßungen_TC_020513_DIN_
 62
     7
100
AcDbMText
 10
386.9900956685729
 20
328.6665882016046
 30
0.0
 40
14.0
 41
0.0
 71
     7
 72
     1
  1
93
  7
CONVERTER_13
 11
0.9999999999970619
 21
2.424068405545306E-6
 31
0.0
 73
     1
 44
0.45454545454545
  0
ENDBLK
  5
58B
330
583
100
AcDbEntity
  8
0
100
AcDbBlockEnd
  0
BLOCK
  5
595
330
58E
100
AcDbEntity
  8
0
100
AcDbBlockBegin
  2
*D5
 70
     1
 10
0.0
 20
0.0
 30
0.0
  3
*D5
  1

  0
LINE
  5
58F
330
58E
100
AcDbEntity
  8
Bemaßungen_TC_020513_DIN_
  6
Continuous
 62
     7
100
AcDbLine
 10
130.9025303082926
 20
322.9744879932331
 30
0.0
 11
264.9025303082926
 21
322.9744879932331
 31
0.0
  0
LINE
  5
590
330
58E
100
AcDbEntity
  8
Bemaßungen_TC_020513_DIN_
  6
Continuous
 62
     7
100
AcDbLine
 10
130.9025303082932
 20
231.112796450945
 30
0.0
 11
130.9025303082932
 21
330.9744879932331
 31
0.0
  0
LINE
  5
591
330
58E
100
AcDbEntity
  8
Bemaßungen_TC_020513_DIN_
  6
Continuous
 62
     7
100
AcDbLine
 10
264.9025303082932
 20
231.112796450945
 30
0.0
 11
264.9025303082932
 21
330.9744879932331
 31
0.0
  0
SOLID
  5
592
330
58E
100
AcDbEntity
  8
Bemaßungen_TC_020513_DIN_
 62
     7
100
AcDbTrace
 10
140.9025303082926
 20
324.291012969107
 30
0.0
 11
140.9025303082926
 21
321.6579630173591
 31
0.0
 12
130.9025303082926
 22
322.9744879932331
 32
0.0
 13
130.9025303082926
 23
322.9744879932331
 33
0.0
  0
SOLID
  5
593
330
58E
100
AcDbEntity
  8
Bemaßungen_TC_020513_DIN_
 62
     7
100
AcDbTrace
 10
254.9025303082926
 20
321.6579630173591
 30
0.0
 11
254.9025303082926
 21
324.291012969107
 31
0.0
 12
264.9025303082926
 22
322.9744879932331
 32
0.0
 13
264.9025303082926
 23
322.9744879932331
 33
0.0
  0
MTEXT
  5
594
330
58E
100
AcDbEntity
  8
Bemaßungen_TC_020513_DIN_
 62
     7
100
AcDbMText
 10
190.2567094806436
 20
329.1665882016046
 30
0.0
 40
14.0
 41
0.0
 71
     7
 72
     1
  1
134
  7
CONVERTER_13
 11
0.9999999999970619
 21
2.424068405545306E-6
 31
0.0
 73
     1
 44
0.45454545454545
  0
ENDBLK
  5
596
330
58E
100
AcDbEntity
  8
0
100
AcDbBlockEnd
  0
BLOCK
  5
5A0
330
599
100
AcDbEntity
  8
0
100
AcDbBlockBegin
  2
*D6
 70
     1
 10
0.0
 20
0.0
 30
0.0
  3
*D6
  1

  0
LINE
  5
59A
330
599
100
AcDbEntity
  8
Bemaßungen_TC_020513_DIN_
  6
Continuous
 62
     7
100
AcDbLine
 10
106.5632268257057
 20
171.1127964509452
 30
0.0
 11
106.5632268257057
 21
298.6127964509452
 31
0.0
  0
LINE
  5
59B
330
599
100
AcDbEntity
  8
Bemaßungen_TC_020513_DIN_
  6
Continuous
 62
     7
100
AcDbLine
 10
121.9025303082932
 20
171.112796450945
 30
0.0
 11
98.56322682570567
 21
171.112796450945
 31
0.0
  0
LINE
  5
59C
330
599
100
AcDbEntity
  8
Bemaßungen_TC_020513_DIN_
  6
Continuous
 62
     7
100
AcDbLine
 10
184.9025303082932
 20
298.612796450945
 30
0.0
 11
98.56322682570567
 21
298.612796450945
 31
0.0
  0
SOLID
  5
59D
330
599
100
AcDbEntity
  8
Bemaßungen_TC_020513_DIN_
 62
     7
100
AcDbTrace
 10
105.2467018498317
 20
181.1127964509452
 30
0.0
 11
107.8797518015796
 21
181.1127964509452
 31
0.0
 12
106.5632268257057
 22
171.1127964509452
 32
0.0
 13
106.5632268257057
 23
171.1127964509452
 33
0.0
  0
SOLID
  5
59E
330
599
100
AcDbEntity
  8
Bemaßungen_TC_020513_DIN_
 62
     7
100
AcDbTrace
 10
107.8797518015796
 20
288.6127964509452
 30
0.0
 11
105.2467018498317
 21
288.6127964509452
 31
0.0
 12
106.5632268257057
 22
298.6127964509452
 32
0.0
 13
106.5632268257057
 23
298.6127964509452
 33
0.0
  0
MTEXT
  5
59F
330
599
100
AcDbEntity
  8
Bemaßungen_TC_020513_DIN_
 62
     7
100
AcDbMText
 10
97.02100139080649
 20
224.2419597069707
 30
0.0
 40
14.0
 41
0.0
 71
     7
 72
     1
  1
127,5
  7
CONVERTER_13
 11
0.0
 21
1.0
 31
0.0
 73
     1
 44
0.45454545454545
  0
ENDBLK
  5
5A1
330
599
100
AcDbEntity
  8
0
100
AcDbBlockEnd
  0
BLOCK
  5
5AB
330
5A4
100
AcDbEntity
  8
0
100
AcDbBlockBegin
  2
*D7
 70
     1
 10
0.0
 20
0.0
 30
0.0
  3
*D7
  1

  0
LINE
  5
5A5
330
5A4
100
AcDbEntity
  8
Bemaßungen_TC_020513_DIN_
  6
Continuous
 62
     7
100
AcDbLine
 10
468.0434050385611
 20
171.1127964509451
 30
0.0
 11
468.0434050385611
 21
234.1127964509452
 31
0.0
  0
LINE
  5
5A6
330
5A4
100
AcDbEntity
  8
Bemaßungen_TC_020513_DIN_
  6
Continuous
 62
     7
100
AcDbLine
 10
425.2550965808452
 20
171.1127964509449
 30
0.0
 11
476.0434050385611
 21
171.1127964509449
 31
0.0
  0
LINE
  5
5A7
330
5A4
100
AcDbEntity
  8
Bemaßungen_TC_020513_DIN_
  6
Continuous
 62
     7
100
AcDbLine
 10
415.9050965808492
 20
234.1127964509449
 30
0.0
 11
476.0434050385611
 21
234.1127964509449
 31
0.0
  0
SOLID
  5
5A8
330
5A4
100
AcDbEntity
  8
Bemaßungen_TC_020513_DIN_
 62
     7
100
AcDbTrace
 10
466.7268800626871
 20
181.1127964509451
 30
0.0
 11
469.3599300144351
 21
181.1127964509451
 31
0.0
 12
468.0434050385611
 22
171.1127964509451
 32
0.0
 13
468.0434050385611
 23
171.1127964509451
 33
0.0
  0
SOLID
  5
5A9
330
5A4
100
AcDbEntity
  8
Bemaßungen_TC_020513_DIN_
 62
     7
100
AcDbTrace
 10
469.3599300144351
 20
224.1127964509452
 30
0.0
 11
466.7268800626871
 21
224.1127964509452
 31
0.0
 12
468.0434050385611
 22
234.1127964509452
 32
0.0
 13
468.0434050385611
 23
234.1127964509452
 33
0.0
  0
MTEXT
  5
5AA
330
5A4
100
AcDbEntity
  8
Bemaßungen_TC_020513_DIN_
 62
     7
100
AcDbMText
 10
461.8513048301896
 20
197.4867209620866
 30
0.0
 40
14.0
 41
0.0
 71
     7
 72
     1
  1
63
  7
CONVERTER_13
 11
0.0
 21
1.0
 31
0.0
 73
     1
 44
0.45454545454545
  0
ENDBLK
  5
5AC
330
5A4
100
AcDbEntity
  8
0
100
AcDbBlockEnd
  0
BLOCK
  5
5B8
330
5AF
100
AcDbEntity
  8
0
100
AcDbBlockBegin
  2
*D8
 70
     1
 10
0.0
 20
0.0
 30
0.0
  3
*D8
  1

  0
LINE
  5
5B0
330
5AF
100
AcDbEntity
  8
Bemaßungen_TC_020513_DIN_
  6
Continuous
 62
     7
100
AcDbLine
 10
447.0740538087958
 20
195.1127964509449
 30
0.0
 11
447.0740538087958
 21
175.1127964509449
 31
0.0
  0
LINE
  5
5B1
330
5AF
100
AcDbEntity
  8
Bemaßungen_TC_020513_DIN_
  6
Continuous
 62
     7
100
AcDbLine
 10
447.0740538087958
 20
175.1127964509449
 30
0.0
 11
447.0740538087958
 21
171.1127964509449
 31
0.0
  0
LINE
  5
5B2
330
5AF
100
AcDbEntity
  8
Bemaßungen_TC_020513_DIN_
  6
Continuous
 62
     7
100
AcDbLine
 10
447.0740538087958
 20
171.1127964509449
 30
0.0
 11
447.0740538087958
 21
151.1127964509449
 31
0.0
  0
LINE
  5
5B3
330
5AF
100
AcDbEntity
  8
Bemaßungen_TC_020513_DIN_
  6
Continuous
 62
     7
100
AcDbLine
 10
425.2550965808453
 20
175.112796450945
 30
0.0
 11
455.0740538087958
 21
175.112796450945
 31
0.0
  0
LINE
  5
5B4
330
5AF
100
AcDbEntity
  8
Bemaßungen_TC_020513_DIN_
  6
Continuous
 62
     7
100
AcDbLine
 10
425.2550965808453
 20
171.112796450945
 30
0.0
 11
455.0740538087958
 21
171.112796450945
 31
0.0
  0
SOLID
  5
5B5
330
5AF
100
AcDbEntity
  8
Bemaßungen_TC_020513_DIN_
 62
     7
100
AcDbTrace
 10
445.7575288329218
 20
185.1127964509449
 30
0.0
 11
448.3905787846697
 21
185.1127964509449
 31
0.0
 12
447.0740538087958
 22
175.1127964509449
 32
0.0
 13
447.0740538087958
 23
175.1127964509449
 33
0.0
  0
SOLID
  5
5B6
330
5AF
100
AcDbEntity
  8
Bemaßungen_TC_020513_DIN_
 62
     7
100
AcDbTrace
 10
448.3905787846697
 20
161.1127964509449
 30
0.0
 11
445.7575288329218
 21
161.1127964509449
 31
0.0
 12
447.0740538087958
 22
171.1127964509449
 32
0.0
 13
447.0740538087958
 23
171.1127964509449
 33
0.0
  0
MTEXT
  5
5B7
330
5AF
100
AcDbEntity
  8
Bemaßungen_TC_020513_DIN_
 62
     7
100
AcDbMText
 10
441.1740538087956
 20
186.782796450945
 30
0.0
 40
14.0
 41
0.0
 71
     7
 72
     1
  1
4
  7
CONVERTER_13
 11
0.0
 21
1.0
 31
0.0
 73
     1
 44
0.45454545454545
  0
ENDBLK
  5
5B9
330
5AF
100
AcDbEntity
  8
0
100
AcDbBlockEnd
  0
BLOCK
  5
5C3
330
5BC
100
AcDbEntity
  8
0
100
AcDbBlockBegin
  2
*D9
 70
     1
 10
0.0
 20
0.0
 30
0.0
  3
*D9
  1

  0
LINE
  5
5BD
330
5BC
100
AcDbEntity
  8
Bemaßungen_TC_020513_DIN_
  6
Continuous
 62
     7
100
AcDbLine
 10
263.902530308293
 20
140.974487993233
 30
0.0
 11
131.902530308293
 21
140.974487993233
 31
0.0
  0
LINE
  5
5BE
330
5BC
100
AcDbEntity
  8
Bemaßungen_TC_020513_DIN_
  6
Continuous
 62
     7
100
AcDbLine
 10
263.9025303082932
 20
169.112796450945
 30
0.0
 11
263.9025303082932
 21
132.974487993233
 31
0.0
  0
LINE
  5
5BF
330
5BC
100
AcDbEntity
  8
Bemaßungen_TC_020513_DIN_
  6
Continuous
 62
     7
100
AcDbLine
 10
131.9025303082932
 20
169.112796450945
 30
0.0
 11
131.9025303082932
 21
132.974487993233
 31
0.0
  0
SOLID
  5
5C0
330
5BC
100
AcDbEntity
  8
Bemaßungen_TC_020513_DIN_
 62
     7
100
AcDbTrace
 10
253.902530308293
 20
139.657963017359
 30
0.0
 11
253.902530308293
 21
142.291012969107
 31
0.0
 12
263.902530308293
 22
140.974487993233
 32
0.0
 13
263.902530308293
 23
140.974487993233
 33
0.0
  0
SOLID
  5
5C1
330
5BC
100
AcDbEntity
  8
Bemaßungen_TC_020513_DIN_
 62
     7
100
AcDbTrace
 10
141.902530308293
 20
142.291012969107
 30
0.0
 11
141.902530308293
 21
139.657963017359
 31
0.0
 12
131.902530308293
 22
140.974487993233
 32
0.0
 13
131.902530308293
 23
140.974487993233
 33
0.0
  0
MTEXT
  5
5C2
330
5BC
100
AcDbEntity
  8
Bemaßungen_TC_020513_DIN_
 62
     7
100
AcDbMText
 10
190.3481965202076
 20
147.1665882016046
 30
0.0
 40
14.0
 41
0.0
 71
     7
 72
     1
  1
132
  7
CONVERTER_13
 11
0.9999999999970619
 21
2.424068405545306E-6
 31
0.0
 73
     1
 44
0.45454545454545
  0
ENDBLK
  5
5C4
330
5BC
100
AcDbEntity
  8
0
100
AcDbBlockEnd
  0
BLOCK
  5
5CE
330
5C7
100
AcDbEntity
  8
0
100
AcDbBlockBegin
  2
*D10
 70
     1
 10
0.0
 20
0.0
 30
0.0
  3
*D10
  1

  0
LINE
  5
5C8
330
5C7
100
AcDbEntity
  8
Bemaßungen_TC_020513_DIN_
  6
Continuous
 62
     7
100
AcDbLine
 10
125.9025303082926
 20
119.0093138638798
 30
0.0
 11
269.9025303082926
 21
119.0093138638798
 31
0.0
  0
LINE
  5
5C9
330
5C7
100
AcDbEntity
  8
Bemaßungen_TC_020513_DIN_
  6
Continuous
 62
     7
100
AcDbLine
 10
125.9025303082932
 20
171.112796450945
 30
0.0
 11
125.9025303082932
 21
111.0093138638798
 31
0.0
  0
LINE
  5
5CA
330
5C7
100
AcDbEntity
  8
Bemaßungen_TC_020513_DIN_
  6
Continuous
 62
     7
100
AcDbLine
 10
269.9025303082932
 20
171.112796450945
 30
0.0
 11
269.9025303082932
 21
111.0093138638798
 31
0.0
  0
SOLID
  5
5CB
330
5C7
100
AcDbEntity
  8
Bemaßungen_TC_020513_DIN_
 62
     7
100
AcDbTrace
 10
135.9025303082926
 20
120.3258388397537
 30
0.0
 11
135.9025303082926
 21
117.6927888880058
 31
0.0
 12
125.9025303082926
 22
119.0093138638798
 32
0.0
 13
125.9025303082926
 23
119.0093138638798
 33
0.0
  0
SOLID
  5
5CC
330
5C7
100
AcDbEntity
  8
Bemaßungen_TC_020513_DIN_
 62
     7
100
AcDbTrace
 10
259.9025303082926
 20
117.6927888880058
 30
0.0
 11
259.9025303082926
 21
120.3258388397537
 31
0.0
 12
269.9025303082926
 22
119.0093138638798
 32
0.0
 13
269.9025303082926
 23
119.0093138638798
 33
0.0
  0
MTEXT
  5
5CD
330
5C7
100
AcDbEntity
  8
Bemaßungen_TC_020513_DIN_
 62
     7
100
AcDbMText
 10
190.2567094806436
 20
124.9379632499644
 30
0.0
 40
14.0
 41
0.0
 71
     7
 72
     1
  1
144
  7
CONVERTER_13
 11
0.9999999999970619
 21
2.424068405545306E-6
 31
0.0
 73
     1
 44
0.45454545454545
  0
ENDBLK
  5
5CF
330
5C7
100
AcDbEntity
  8
0
100
AcDbBlockEnd
  0
BLOCK
  5
5D9
330
5D2
100
AcDbEntity
  8
0
100
AcDbBlockBegin
  2
*D11
 70
     1
 10
0.0
 20
0.0
 30
0.0
  3
*D11
  1

  0
LINE
  5
5D3
330
5D2
100
AcDbEntity
  8
Bemaßungen_TC_020513_DIN_
  6
Continuous
 62
     7
100
AcDbLine
 10
370.2550965808472
 20
139.9176490130059
 30
0.0
 11
415.2550965808472
 21
139.9176490130059
 31
0.0
  0
LINE
  5
5D4
330
5D2
100
AcDbEntity
  8
Bemaßungen_TC_020513_DIN_
  6
Continuous
 62
     7
100
AcDbLine
 10
370.2550965808472
 20
169.112796450945
 30
0.0
 11
370.2550965808472
 21
131.9176490130059
 31
0.0
  0
LINE
  5
5D5
330
5D2
100
AcDbEntity
  8
Bemaßungen_TC_020513_DIN_
  6
Continuous
 62
     7
100
AcDbLine
 10
415.2550965808472
 20
169.112796450945
 30
0.0
 11
415.2550965808472
 21
131.9176490130059
 31
0.0
  0
SOLID
  5
5D6
330
5D2
100
AcDbEntity
  8
Bemaßungen_TC_020513_DIN_
 62
     7
100
AcDbTrace
 10
380.2550965808472
 20
141.2341739888798
 30
0.0
 11
380.2550965808472
 21
138.6011240371319
 31
0.0
 12
370.2550965808472
 22
139.9176490130059
 32
0.0
 13
370.2550965808472
 23
139.9176490130059
 33
0.0
  0
SOLID
  5
5D7
330
5D2
100
AcDbEntity
  8
Bemaßungen_TC_020513_DIN_
 62
     7
100
AcDbTrace
 10
405.2550965808472
 20
138.6011240371319
 30
0.0
 11
405.2550965808472
 21
141.2341739888798
 31
0.0
 12
415.2550965808472
 22
139.9176490130059
 32
0.0
 13
415.2550965808472
 23
139.9176490130059
 33
0.0
  0
MTEXT
  5
5D8
330
5D2
100
AcDbEntity
  8
Bemaßungen_TC_020513_DIN_
 62
     7
100
AcDbMText
 10
387.480999263885
 20
146.076324937612
 30
0.0
 40
14.0
 41
0.0
 71
     7
 72
     1
  1
45
  7
CONVERTER_13
 11
0.9999999999970619
 21
2.424068405545306E-6
 31
0.0
 73
     1
 44
0.45454545454545
  0
ENDBLK
  5
5DA
330
5D2
100
AcDbEntity
  8
0
100
AcDbBlockEnd
  0
BLOCK
  5
5E4
330
5DD
100
AcDbEntity
  8
0
100
AcDbBlockBegin
  2
*D12
 70
     1
 10
0.0
 20
0.0
 30
0.0
  3
*D12
  1

  0
LINE
  5
5DE
330
5DD
100
AcDbEntity
  8
Bemaßungen_TC_020513_DIN_
  6
Continuous
 62
     7
100
AcDbLine
 10
364.2550965808454
 20
119.0093138638803
 30
0.0
 11
421.2550965808453
 21
119.0093138638803
 31
0.0
  0
LINE
  5
5DF
330
5DD
100
AcDbEntity
  8
Bemaßungen_TC_020513_DIN_
  6
Continuous
 62
     7
100
AcDbLine
 10
364.2550965808452
 20
171.112796450945
 30
0.0
 11
364.2550965808452
 21
111.0093138638803
 31
0.0
  0
LINE
  5
5E0
330
5DD
100
AcDbEntity
  8
Bemaßungen_TC_020513_DIN_
  6
Continuous
 62
     7
100
AcDbLine
 10
421.2550965808452
 20
167.112796450945
 30
0.0
 11
421.2550965808452
 21
111.0093138638803
 31
0.0
  0
SOLID
  5
5E1
330
5DD
100
AcDbEntity
  8
Bemaßungen_TC_020513_DIN_
 62
     7
100
AcDbTrace
 10
374.2550965808454
 20
120.3258388397542
 30
0.0
 11
374.2550965808454
 21
117.6927888880063
 31
0.0
 12
364.2550965808454
 22
119.0093138638803
 32
0.0
 13
364.2550965808454
 23
119.0093138638803
 33
0.0
  0
SOLID
  5
5E2
330
5DD
100
AcDbEntity
  8
Bemaßungen_TC_020513_DIN_
 62
     7
100
AcDbTrace
 10
411.2550965808453
 20
117.6927888880063
 30
0.0
 11
411.2550965808453
 21
120.3258388397542
 31
0.0
 12
421.2550965808453
 22
119.0093138638803
 32
0.0
 13
421.2550965808453
 23
119.0093138638803
 33
0.0
  0
MTEXT
  5
5E3
330
5DD
100
AcDbEntity
  8
Bemaßungen_TC_020513_DIN_
 62
     7
100
AcDbMText
 10
387.6481206827099
 20
125.1679897884864
 30
0.0
 40
14.0
 41
0.0
 71
     7
 72
     1
  1
57
  7
CONVERTER_13
 11
0.9999999999970619
 21
2.424068405545306E-6
 31
0.0
 73
     1
 44
0.45454545454545
  0
ENDBLK
  5
5E5
330
5DD
100
AcDbEntity
  8
0
100
AcDbBlockEnd
  0
ENDSEC
  0
SECTION
  2
ENTITIES
  0
INSERT
  5
56
330
1F
100
AcDbEntity
  8
0
100
AcDbBlockReference
  2
A4_oriz
 10
594.0000000000002
 20
0.0
 30
0.0
  0
POINT
  5
B2
330
1F
100
AcDbEntity
  8
Bemaßungen_TC_020513_DIN_
 62
     7
100
AcDbPoint
 10
269.9025303082932
 20
205.054796450945
 30
0.0
  0
POINT
  5
B3
330
1F
100
AcDbEntity
  8
Bemaßungen_TC_020513_DIN_
 62
     7
100
AcDbPoint
 10
269.9025303082932
 20
175.950796450945
 30
0.0
  0
POINT
  5
B4
330
1F
100
AcDbEntity
  8
Bemaßungen_TC_020513_DIN_
 62
     7
100
AcDbPoint
 10
345.5050965808492
 20
290.612796450945
 30
0.0
  0
POINT
  5
B5
330
1F
100
AcDbEntity
  8
Bemaßungen_TC_020513_DIN_
 62
     7
100
AcDbPoint
 10
438.6890465525682
 20
216.112796450945
 30
0.0
  0
POINT
  5
B6
330
1F
100
AcDbEntity
  8
Bemaßungen_TC_020513_DIN_
 62
     7
100
AcDbPoint
 10
130.9025303082932
 20
227.112796450945
 30
0.0
  0
POINT
  5
B7
330
1F
100
AcDbEntity
  8
Bemaßungen_TC_020513_DIN_
 62
     7
100
AcDbPoint
 10
264.9025303082932
 20
227.112796450945
 30
0.0
  0
POINT
  5
B8
330
1F
100
AcDbEntity
  8
Bemaßungen_TC_020513_DIN_
 62
     7
100
AcDbPoint
 10
125.9025303082932
 20
171.112796450945
 30
0.0
  0
POINT
  5
B9
330
1F
100
AcDbEntity
  8
Bemaßungen_TC_020513_DIN_
 62
     7
100
AcDbPoint
 10
188.9025303082932
 20
298.612796450945
 30
0.0
  0
POINT
  5
BA
330
1F
100
AcDbEntity
  8
Bemaßungen_TC_020513_DIN_
 62
     7
100
AcDbPoint
 10
421.2550965808453
 20
171.112796450945
 30
0.0
  0
POINT
  5
BB
330
1F
100
AcDbEntity
  8
Bemaßungen_TC_020513_DIN_
 62
     7
100
AcDbPoint
 10
411.9050965808492
 20
234.112796450945
 30
0.0
  0
POINT
  5
BC
330
1F
100
AcDbEntity
  8
Bemaßungen_TC_020513_DIN_
 62
     7
100
AcDbPoint
 10
421.2550965808453
 20
175.112796450945
 30
0.0
  0
POINT
  5
BD
330
1F
100
AcDbEntity
  8
Bemaßungen_TC_020513_DIN_
 62
     7
100
AcDbPoint
 10
421.2550965808453
 20
171.112796450945
 30
0.0
  0
POINT
  5
BE
330
1F
100
AcDbEntity
  8
Bemaßungen_TC_020513_DIN_
 62
     7
100
AcDbPoint
 10
263.9025303082932
 20
173.112796450945
 30
0.0
  0
POINT
  5
BF
330
1F
100
AcDbEntity
  8
Bemaßungen_TC_020513_DIN_
 62
     7
100
AcDbPoint
 10
131.9025303082932
 20
173.112796450945
 30
0.0
  0
POINT
  5
C0
330
1F
100
AcDbEntity
  8
Bemaßungen_TC_020513_DIN_
 62
     7
100
AcDbPoint
 10
125.9025303082932
 20
175.112796450945
 30
0.0
  0
POINT
  5
C1
330
1F
100
AcDbEntity
  8
Bemaßungen_TC_020513_DIN_
 62
     7
100
AcDbPoint
 10
269.9025303082932
 20
175.112796450945
 30
0.0
  0
POINT
  5
C2
330
1F
100
AcDbEntity
  8
Bemaßungen_TC_020513_DIN_
 62
     7
100
AcDbPoint
 10
370.2550965808472
 20
173.112796450945
 30
0.0
  0
POINT
  5
C3
330
1F
100
AcDbEntity
  8
Bemaßungen_TC_020513_DIN_
 62
     7
100
AcDbPoint
 10
415.2550965808472
 20
173.112796450945
 30
0.0
  0
POINT
  5
C4
330
1F
100
AcDbEntity
  8
Bemaßungen_TC_020513_DIN_
 62
     7
100
AcDbPoint
 10
364.2550965808453
 20
175.112796450945
 30
0.0
  0
POINT
  5
C5
330
1F
100
AcDbEntity
  8
Bemaßungen_TC_020513_DIN_
 62
     7
100
AcDbPoint
 10
421.2550965808453
 20
171.112796450945
 30
0.0
  0
LINE
  5
C6
330
1F
100
AcDbEntity
  8
Sichtbare_Kanten_TC_020513_DIN_
  6
Continuous
 62
     7
100
AcDbLine
 10
140.4107124358152
 20
216.296159148354
 30
0.0
 11
146.7430710352712
 21
216.296159148354
 31
0.0
  0
LINE
  5
C7
330
1F
100
AcDbEntity
  8
Sichtbare_Kanten_TC_020513_DIN_
  6
Continuous
 62
     7
100
AcDbLine
 10
140.4107124358152
 20
214.896159148354
 30
0.0
 11
146.7430710352712
 21
214.896159148354
 31
0.0
  0
LINE
  5
C8
330
1F
100
AcDbEntity
  8
Sichtbare_Kanten_TC_020513_DIN_
  6
Continuous
 62
     7
100
AcDbLine
 10
140.4107124358152
 20
216.296159148354
 30
0.0
 11
139.6191676108832
 21
216.296159148354
 31
0.0
  0
LINE
  5
C9
330
1F
100
AcDbEntity
  8
Sichtbare_Kanten_TC_020513_DIN_
  6
Continuous
 62
     7
100
AcDbLine
 10
140.4107124358152
 20
214.896159148354
 30
0.0
 11
139.6191676108832
 21
214.896159148354
 31
0.0
  0
LINE
  5
CA
330
1F
100
AcDbEntity
  8
Sichtbare_Kanten_TC_020513_DIN_
  6
Continuous
 62
     7
100
AcDbLine
 10
139.6191676108832
 20
214.896159148354
 30
0.0
 11
135.7025303082933
 21
214.896159148354
 31
0.0
  0
LINE
  5
CB
330
1F
100
AcDbEntity
  8
Sichtbare_Kanten_TC_020513_DIN_
  6
Continuous
 62
     7
100
AcDbLine
 10
139.6191676108832
 20
216.296159148354
 30
0.0
 11
135.7025303082933
 21
216.296159148354
 31
0.0
  0
LINE
  5
CC
330
1F
100
AcDbEntity
  8
Sichtbare_Kanten_TC_020513_DIN_
  6
Continuous
 62
     7
100
AcDbLine
 10
134.3025303082923
 20
217.696159148354
 30
0.0
 11
134.3025303082923
 21
220.112796450945
 31
0.0
  0
LINE
  5
CD
330
1F
100
AcDbEntity
  8
Sichtbare_Kanten_TC_020513_DIN_
  6
Continuous
 62
     7
100
AcDbLine
 10
132.9025303082932
 20
217.696159148354
 30
0.0
 11
132.9025303082932
 21
220.112796450945
 31
0.0
  0
LINE
  5
CE
330
1F
100
AcDbEntity
  8
Sichtbare_Kanten_TC_020513_DIN_
  6
Continuous
 62
     7
100
AcDbLine
 10
134.3025303082923
 20
234.112796450945
 30
0.0
 11
134.3025303082923
 21
233.4047721645239
 31
0.0
  0
LINE
  5
CF
330
1F
100
AcDbEntity
  8
Sichtbare_Kanten_TC_020513_DIN_
  6
Continuous
 62
     7
100
AcDbLine
 10
132.9025303082932
 20
234.112796450945
 30
0.0
 11
132.9025303082932
 21
233.4047721645239
 31
0.0
  0
LINE
  5
D0
330
1F
100
AcDbEntity
  8
Sichtbare_Kanten_TC_020513_DIN_
  6
Continuous
 62
     7
100
AcDbLine
 10
134.3025303082923
 20
233.4047721645239
 30
0.0
 11
134.3025303082923
 21
228.2912087008519
 31
0.0
  0
LINE
  5
D1
330
1F
100
AcDbEntity
  8
Sichtbare_Kanten_TC_020513_DIN_
  6
Continuous
 62
     7
100
AcDbLine
 10
132.9025303082932
 20
233.4047721645239
 30
0.0
 11
132.9025303082932
 21
228.2912087008519
 31
0.0
  0
LINE
  5
D2
330
1F
100
AcDbEntity
  8
Sichtbare_Kanten_TC_020513_DIN_
  6
Continuous
 62
     7
100
AcDbLine
 10
134.3025303082923
 20
228.112796450945
 30
0.0
 11
134.3025303082923
 21
228.2912087008519
 31
0.0
  0
LINE
  5
D3
330
1F
100
AcDbEntity
  8
Sichtbare_Kanten_TC_020513_DIN_
  6
Continuous
 62
     7
100
AcDbLine
 10
132.9025303082932
 20
228.112796450945
 30
0.0
 11
132.9025303082932
 21
228.2912087008519
 31
0.0
  0
LINE
  5
D4
330
1F
100
AcDbEntity
  8
Sichtbare_Kanten_TC_020513_DIN_
  6
Continuous
 62
     7
100
AcDbLine
 10
132.9025303082932
 20
228.112796450945
 30
0.0
 11
134.3025303082923
 21
228.112796450945
 31
0.0
  0
LINE
  5
D5
330
1F
100
AcDbEntity
  8
Sichtbare_Kanten_TC_020513_DIN_
  6
Continuous
 62
     7
100
AcDbLine
 10
134.3025303082923
 20
228.112796450945
 30
0.0
 11
134.3025303082923
 21
220.112796450945
 31
0.0
  0
LINE
  5
D6
330
1F
100
AcDbEntity
  8
Sichtbare_Kanten_TC_020513_DIN_
  6
Continuous
 62
     7
100
AcDbLine
 10
132.9025303082932
 20
228.112796450945
 30
0.0
 11
132.9025303082932
 21
220.112796450945
 31
0.0
  0
LINE
  5
D7
330
1F
100
AcDbEntity
  8
Sichtbare_Kanten_TC_020513_DIN_
  6
Continuous
 62
     7
100
AcDbLine
 10
134.3025303082923
 20
215.271288017758
 30
0.0
 11
134.3025303082923
 21
212.378856026339
 31
0.0
  0
LINE
  5
D8
330
1F
100
AcDbEntity
  8
Sichtbare_Kanten_TC_020513_DIN_
  6
Continuous
 62
     7
100
AcDbLine
 10
132.9025303082932
 20
217.696159148354
 30
0.0
 11
132.9025303082932
 21
212.378856026339
 31
0.0
  0
LINE
  5
D9
330
1F
100
AcDbEntity
  8
Sichtbare_Kanten_TC_020513_DIN_
  6
Continuous
 62
     7
100
AcDbLine
 10
145.6191676108832
 20
214.796159148354
 30
0.0
 11
145.6191676108832
 21
213.958504233347
 31
0.0
  0
LINE
  5
DA
330
1F
100
AcDbEntity
  8
Sichtbare_Kanten_TC_020513_DIN_
  6
Continuous
 62
     7
100
AcDbLine
 10
249.0619895813143
 20
216.296159148354
 30
0.0
 11
146.7430710352712
 21
216.296159148354
 31
0.0
  0
LINE
  5
DB
330
1F
100
AcDbEntity
  8
Sichtbare_Kanten_TC_020513_DIN_
  6
Continuous
 62
     7
100
AcDbLine
 10
145.6191676108832
 20
213.958504233347
 30
0.0
 11
187.6191676108832
 21
213.958504233347
 31
0.0
  0
LINE
  5
DC
330
1F
100
AcDbEntity
  8
Sichtbare_Kanten_TC_020513_DIN_
  6
Continuous
 62
     7
100
AcDbLine
 10
188.1191676108832
 20
214.458504233347
 30
0.0
 11
188.1191676108832
 21
214.796159148354
 31
0.0
  0
LINE
  5
DD
330
1F
100
AcDbEntity
  8
Sichtbare_Kanten_TC_020513_DIN_
  6
Continuous
 62
     7
100
AcDbLine
 10
249.0619895813143
 20
214.896159148354
 30
0.0
 11
146.7430710352712
 21
214.896159148354
 31
0.0
  0
LINE
  5
DE
330
1F
100
AcDbEntity
  8
Sichtbare_Kanten_TC_020513_DIN_
  6
Continuous
 62
     7
100
AcDbLine
 10
132.9025303082932
 20
234.112796450945
 30
0.0
 11
134.3025303082923
 21
234.112796450945
 31
0.0
  0
LINE
  5
DF
330
1F
100
AcDbEntity
  8
Sichtbare_Kanten_TC_020513_DIN_
  6
Continuous
 62
     7
100
AcDbLine
 10
132.9025303082932
 20
212.378856026339
 30
0.0
 11
134.3025303082923
 21
212.378856026339
 31
0.0
  0
LINE
  5
E0
330
1F
100
AcDbEntity
  8
Sichtbare_Kanten_TC_020513_DIN_
  6
Continuous
 62
     7
100
AcDbLine
 10
145.6191676108832
 20
214.896159148354
 30
0.0
 11
145.6191676108832
 21
214.796159148354
 31
0.0
  0
LINE
  5
E1
330
1F
100
AcDbEntity
  8
Sichtbare_Kanten_TC_020513_DIN_
  6
Continuous
 62
     7
100
AcDbLine
 10
188.1191676108832
 20
214.796159148354
 30
0.0
 11
188.1191676108832
 21
214.8760250141399
 31
0.0
  0
LINE
  5
E2
330
1F
100
AcDbEntity
  8
Sichtbare_Kanten_TC_020513_DIN_
  6
Continuous
 62
     7
100
AcDbLine
 10
250.1858930057023
 20
214.796159148354
 30
0.0
 11
250.1858930057023
 21
214.896159148354
 31
0.0
  0
LINE
  5
E3
330
1F
100
AcDbEntity
  8
Sichtbare_Kanten_TC_020513_DIN_
  6
Continuous
 62
     7
100
AcDbLine
 10
207.6858930057023
 20
214.8760250141399
 30
0.0
 11
207.6858930057023
 21
214.796159148354
 31
0.0
  0
LINE
  5
E4
330
1F
100
AcDbEntity
  8
Sichtbare_Kanten_TC_020513_DIN_
  6
Continuous
 62
     7
100
AcDbLine
 10
255.3943481807702
 20
216.296159148354
 30
0.0
 11
249.0619895813143
 21
216.296159148354
 31
0.0
  0
LINE
  5
E5
330
1F
100
AcDbEntity
  8
Sichtbare_Kanten_TC_020513_DIN_
  6
Continuous
 62
     7
100
AcDbLine
 10
255.3943481807702
 20
216.296159148354
 30
0.0
 11
256.1858930057023
 21
216.296159148354
 31
0.0
  0
LINE
  5
E6
330
1F
100
AcDbEntity
  8
Sichtbare_Kanten_TC_020513_DIN_
  6
Continuous
 62
     7
100
AcDbLine
 10
256.1858930057023
 20
216.296159148354
 30
0.0
 11
260.1025303082932
 21
216.296159148354
 31
0.0
  0
LINE
  5
E7
330
1F
100
AcDbEntity
  8
Sichtbare_Kanten_TC_020513_DIN_
  6
Continuous
 62
     7
100
AcDbLine
 10
256.1858930057023
 20
214.896159148354
 30
0.0
 11
260.1025303082932
 21
214.896159148354
 31
0.0
  0
LINE
  5
E8
330
1F
100
AcDbEntity
  8
Sichtbare_Kanten_TC_020513_DIN_
  6
Continuous
 62
     7
100
AcDbLine
 10
255.3943481807702
 20
214.896159148354
 30
0.0
 11
256.1858930057023
 21
214.896159148354
 31
0.0
  0
LINE
  5
E9
330
1F
100
AcDbEntity
  8
Sichtbare_Kanten_TC_020513_DIN_
  6
Continuous
 62
     7
100
AcDbLine
 10
255.3943481807702
 20
214.896159148354
 30
0.0
 11
249.0619895813143
 21
214.896159148354
 31
0.0
  0
LINE
  5
EA
330
1F
100
AcDbEntity
  8
Sichtbare_Kanten_TC_020513_DIN_
  6
Continuous
 62
     7
100
AcDbLine
 10
250.1858930057023
 20
214.796159148354
 30
0.0
 11
250.1858930057023
 21
213.958504233347
 31
0.0
  0
LINE
  5
EB
330
1F
100
AcDbEntity
  8
Sichtbare_Kanten_TC_020513_DIN_
  6
Continuous
 62
     7
100
AcDbLine
 10
262.9025303082932
 20
217.696159148354
 30
0.0
 11
262.9025303082932
 21
220.112796450945
 31
0.0
  0
LINE
  5
EC
330
1F
100
AcDbEntity
  8
Sichtbare_Kanten_TC_020513_DIN_
  6
Continuous
 62
     7
100
AcDbLine
 10
261.5025303082922
 20
217.696159148354
 30
0.0
 11
261.5025303082922
 21
220.112796450945
 31
0.0
  0
LINE
  5
ED
330
1F
100
AcDbEntity
  8
Sichtbare_Kanten_TC_020513_DIN_
  6
Continuous
 62
     7
100
AcDbLine
 10
261.5025303082922
 20
234.112796450945
 30
0.0
 11
261.5025303082922
 21
233.4047721645239
 31
0.0
  0
LINE
  5
EE
330
1F
100
AcDbEntity
  8
Sichtbare_Kanten_TC_020513_DIN_
  6
Continuous
 62
     7
100
AcDbLine
 10
262.9025303082932
 20
234.112796450945
 30
0.0
 11
262.9025303082932
 21
233.4047721645239
 31
0.0
  0
LINE
  5
EF
330
1F
100
AcDbEntity
  8
Sichtbare_Kanten_TC_020513_DIN_
  6
Continuous
 62
     7
100
AcDbLine
 10
261.5025303082922
 20
233.4047721645239
 30
0.0
 11
261.5025303082922
 21
228.2912087008519
 31
0.0
  0
LINE
  5
F0
330
1F
100
AcDbEntity
  8
Sichtbare_Kanten_TC_020513_DIN_
  6
Continuous
 62
     7
100
AcDbLine
 10
262.9025303082932
 20
233.4047721645239
 30
0.0
 11
262.9025303082932
 21
228.2912087008519
 31
0.0
  0
LINE
  5
F1
330
1F
100
AcDbEntity
  8
Sichtbare_Kanten_TC_020513_DIN_
  6
Continuous
 62
     7
100
AcDbLine
 10
261.5025303082922
 20
228.112796450945
 30
0.0
 11
261.5025303082922
 21
228.2912087008519
 31
0.0
  0
LINE
  5
F2
330
1F
100
AcDbEntity
  8
Sichtbare_Kanten_TC_020513_DIN_
  6
Continuous
 62
     7
100
AcDbLine
 10
262.9025303082932
 20
228.112796450945
 30
0.0
 11
262.9025303082932
 21
228.2912087008519
 31
0.0
  0
LINE
  5
F3
330
1F
100
AcDbEntity
  8
Sichtbare_Kanten_TC_020513_DIN_
  6
Continuous
 62
     7
100
AcDbLine
 10
262.9025303082932
 20
228.112796450945
 30
0.0
 11
261.5025303082922
 21
228.112796450945
 31
0.0
  0
LINE
  5
F4
330
1F
100
AcDbEntity
  8
Sichtbare_Kanten_TC_020513_DIN_
  6
Continuous
 62
     7
100
AcDbLine
 10
261.5025303082922
 20
228.112796450945
 30
0.0
 11
261.5025303082922
 21
220.112796450945
 31
0.0
  0
LINE
  5
F5
330
1F
100
AcDbEntity
  8
Sichtbare_Kanten_TC_020513_DIN_
  6
Continuous
 62
     7
100
AcDbLine
 10
262.9025303082932
 20
228.112796450945
 30
0.0
 11
262.9025303082932
 21
220.112796450945
 31
0.0
  0
LINE
  5
F6
330
1F
100
AcDbEntity
  8
Sichtbare_Kanten_TC_020513_DIN_
  6
Continuous
 62
     7
100
AcDbLine
 10
261.5025303082922
 20
215.271288017758
 30
0.0
 11
261.5025303082922
 21
212.378856026339
 31
0.0
  0
LINE
  5
F7
330
1F
100
AcDbEntity
  8
Sichtbare_Kanten_TC_020513_DIN_
  6
Continuous
 62
     7
100
AcDbLine
 10
262.9025303082932
 20
217.696159148354
 30
0.0
 11
262.9025303082932
 21
212.378856026339
 31
0.0
  0
LINE
  5
F8
330
1F
100
AcDbEntity
  8
Sichtbare_Kanten_TC_020513_DIN_
  6
Continuous
 62
     7
100
AcDbLine
 10
207.6858930057023
 20
214.458504233347
 30
0.0
 11
207.6858930057023
 21
214.796159148354
 31
0.0
  0
LINE
  5
F9
330
1F
100
AcDbEntity
  8
Sichtbare_Kanten_TC_020513_DIN_
  6
Continuous
 62
     7
100
AcDbLine
 10
250.1858930057023
 20
213.958504233347
 30
0.0
 11
208.1858930057023
 21
213.958504233347
 31
0.0
  0
LINE
  5
FA
330
1F
100
AcDbEntity
  8
Sichtbare_Kanten_TC_020513_DIN_
  6
Continuous
 62
     7
100
AcDbLine
 10
261.5025303082922
 20
234.112796450945
 30
0.0
 11
262.9025303082932
 21
234.112796450945
 31
0.0
  0
LINE
  5
FB
330
1F
100
AcDbEntity
  8
Sichtbare_Kanten_TC_020513_DIN_
  6
Continuous
 62
     7
100
AcDbLine
 10
261.5025303082922
 20
212.378856026339
 30
0.0
 11
262.9025303082932
 21
212.378856026339
 31
0.0
  0
LINE
  5
FC
330
1F
100
AcDbEntity
  8
Sichtbare_Kanten_TC_020513_DIN_
  6
Continuous
 62
     7
100
AcDbLine
 10
125.9025303082932
 20
171.112796450945
 30
0.0
 11
125.9025303082932
 21
175.112796450945
 31
0.0
  0
LINE
  5
FD
330
1F
100
AcDbEntity
  8
Sichtbare_Kanten_TC_020513_DIN_
  6
Continuous
 62
     7
100
AcDbLine
 10
134.9025303082932
 20
175.112796450945
 30
0.0
 11
125.9025303082932
 21
175.112796450945
 31
0.0
  0
LINE
  5
FE
330
1F
100
AcDbEntity
  8
Sichtbare_Kanten_TC_020513_DIN_
  6
Continuous
 62
     7
100
AcDbLine
 10
134.9025303082932
 20
171.112796450945
 30
0.0
 11
125.9025303082932
 21
171.112796450945
 31
0.0
  0
LINE
  5
FF
330
1F
100
AcDbEntity
  8
Sichtbare_Kanten_TC_020513_DIN_
  6
Continuous
 62
     7
100
AcDbLine
 10
134.9025303082932
 20
171.112796450945
 30
0.0
 11
134.9025303082932
 21
175.112796450945
 31
0.0
  0
LINE
  5
100
330
1F
100
AcDbEntity
  8
Sichtbare_Kanten_TC_020513_DIN_
  6
Continuous
 62
     7
100
AcDbLine
 10
144.9025303082932
 20
175.112796450945
 30
0.0
 11
134.9025303082932
 21
175.112796450945
 31
0.0
  0
LINE
  5
101
330
1F
100
AcDbEntity
  8
Sichtbare_Kanten_TC_020513_DIN_
  6
Continuous
 62
     7
100
AcDbLine
 10
144.9025303082932
 20
171.112796450945
 30
0.0
 11
134.9025303082932
 21
171.112796450945
 31
0.0
  0
LINE
  5
102
330
1F
100
AcDbEntity
  8
Sichtbare_Kanten_TC_020513_DIN_
  6
Continuous
 62
     7
100
AcDbLine
 10
144.9025303082932
 20
171.112796450945
 30
0.0
 11
144.9025303082932
 21
175.112796450945
 31
0.0
  0
LINE
  5
103
330
1F
100
AcDbEntity
  8
Sichtbare_Kanten_TC_020513_DIN_
  6
Continuous
 62
     7
100
AcDbLine
 10
250.9025303082932
 20
171.112796450945
 30
0.0
 11
144.9025303082932
 21
171.112796450945
 31
0.0
  0
LINE
  5
104
330
1F
100
AcDbEntity
  8
Sichtbare_Kanten_TC_020513_DIN_
  6
Continuous
 62
     7
100
AcDbLine
 10
250.9025303082932
 20
171.112796450945
 30
0.0
 11
250.9025303082932
 21
175.112796450945
 31
0.0
  0
LINE
  5
105
330
1F
100
AcDbEntity
  8
Sichtbare_Kanten_TC_020513_DIN_
  6
Continuous
 62
     7
100
AcDbLine
 10
260.9025303082932
 20
175.112796450945
 30
0.0
 11
250.9025303082932
 21
175.112796450945
 31
0.0
  0
LINE
  5
106
330
1F
100
AcDbEntity
  8
Sichtbare_Kanten_TC_020513_DIN_
  6
Continuous
 62
     7
100
AcDbLine
 10
260.9025303082932
 20
171.112796450945
 30
0.0
 11
250.9025303082932
 21
171.112796450945
 31
0.0
  0
LINE
  5
107
330
1F
100
AcDbEntity
  8
Sichtbare_Kanten_TC_020513_DIN_
  6
Continuous
 62
     7
100
AcDbLine
 10
260.9025303082932
 20
171.112796450945
 30
0.0
 11
260.9025303082932
 21
175.112796450945
 31
0.0
  0
LINE
  5
108
330
1F
100
AcDbEntity
  8
Sichtbare_Kanten_TC_020513_DIN_
  6
Continuous
 62
     7
100
AcDbLine
 10
269.9025303082932
 20
175.112796450945
 30
0.0
 11
260.9025303082932
 21
175.112796450945
 31
0.0
  0
LINE
  5
109
330
1F
100
AcDbEntity
  8
Sichtbare_Kanten_TC_020513_DIN_
  6
Continuous
 62
     7
100
AcDbLine
 10
269.9025303082932
 20
171.112796450945
 30
0.0
 11
260.9025303082932
 21
171.112796450945
 31
0.0
  0
LINE
  5
10A
330
1F
100
AcDbEntity
  8
Sichtbare_Kanten_TC_020513_DIN_
  6
Continuous
 62
     7
100
AcDbLine
 10
269.9025303082932
 20
171.112796450945
 30
0.0
 11
269.9025303082932
 21
175.112796450945
 31
0.0
  0
LINE
  5
10B
330
1F
100
AcDbEntity
  8
Sichtbare_Kanten_TC_020513_DIN_
  6
Continuous
 62
     7
100
AcDbLine
 10
125.9025303082932
 20
190.502796450945
 30
0.0
 11
125.9025303082932
 21
175.112796450945
 31
0.0
  0
LINE
  5
10C
330
1F
100
AcDbEntity
  8
Sichtbare_Kanten_TC_020513_DIN_
  6
Continuous
 62
     7
100
AcDbLine
 10
125.9025303082932
 20
190.502796450945
 30
0.0
 11
125.9025303082932
 21
205.642796450945
 31
0.0
  0
LINE
  5
10D
330
1F
100
AcDbEntity
  8
Sichtbare_Kanten_TC_020513_DIN_
  6
Continuous
 62
     7
100
AcDbLine
 10
137.6525303082932
 20
205.642796450945
 30
0.0
 11
125.9025303082932
 21
205.642796450945
 31
0.0
  0
LINE
  5
10E
330
1F
100
AcDbEntity
  8
Sichtbare_Kanten_TC_020513_DIN_
  6
Continuous
 62
     7
100
AcDbLine
 10
252.1525303082932
 20
230.112796450945
 30
0.0
 11
247.3121067952962
 21
230.112796450945
 31
0.0
  0
LINE
  5
10F
330
1F
100
AcDbEntity
  8
Sichtbare_Kanten_TC_020513_DIN_
  6
Continuous
 62
     7
100
AcDbLine
 10
148.4929538212892
 20
230.112796450945
 30
0.0
 11
143.6525303082932
 21
230.112796450945
 31
0.0
  0
LINE
  5
110
330
1F
100
AcDbEntity
  8
Sichtbare_Kanten_TC_020513_DIN_
  6
Continuous
 62
     7
100
AcDbLine
 10
137.6525303082932
 20
230.112796450945
 30
0.0
 11
143.6525303082932
 21
230.112796450945
 31
0.0
  0
LINE
  5
111
330
1F
100
AcDbEntity
  8
Sichtbare_Kanten_TC_020513_DIN_
  6
Continuous
 62
     7
100
AcDbLine
 10
252.1525303082932
 20
230.112796450945
 30
0.0
 11
258.1525303082932
 21
230.112796450945
 31
0.0
  0
LINE
  5
112
330
1F
100
AcDbEntity
  8
Sichtbare_Kanten_TC_020513_DIN_
  6
Continuous
 62
     7
100
AcDbLine
 10
258.1525303082932
 20
175.112796450945
 30
0.0
 11
258.1525303082932
 21
214.896159148354
 31
0.0
  0
LINE
  5
113
330
1F
100
AcDbEntity
  8
Sichtbare_Kanten_TC_020513_DIN_
  6
Continuous
 62
     7
100
AcDbLine
 10
258.1525303082932
 20
216.296159148354
 30
0.0
 11
258.1525303082932
 21
230.112796450945
 31
0.0
  0
LINE
  5
114
330
1F
100
AcDbEntity
  8
Sichtbare_Kanten_TC_020513_DIN_
  6
Continuous
 62
     7
100
AcDbLine
 10
137.6525303082932
 20
175.112796450945
 30
0.0
 11
137.6525303082932
 21
214.896159148354
 31
0.0
  0
LINE
  5
115
330
1F
100
AcDbEntity
  8
Sichtbare_Kanten_TC_020513_DIN_
  6
Continuous
 62
     7
100
AcDbLine
 10
137.6525303082932
 20
216.296159148354
 30
0.0
 11
137.6525303082932
 21
230.112796450945
 31
0.0
  0
LINE
  5
116
330
1F
100
AcDbEntity
  8
Sichtbare_Kanten_TC_020513_DIN_
  6
Continuous
 62
     7
100
AcDbLine
 10
143.6525303082932
 20
234.112796450945
 30
0.0
 11
137.8525303082932
 21
234.112796450945
 31
0.0
  0
LINE
  5
117
330
1F
100
AcDbEntity
  8
Sichtbare_Kanten_TC_020513_DIN_
  6
Continuous
 62
     7
100
AcDbLine
 10
143.6525303082932
 20
234.112796450945
 30
0.0
 11
147.4577250868692
 21
234.112796450945
 31
0.0
  0
LINE
  5
118
330
1F
100
AcDbEntity
  8
Sichtbare_Kanten_TC_020513_DIN_
  6
Continuous
 62
     7
100
AcDbLine
 10
248.3473355297163
 20
234.112796450945
 30
0.0
 11
252.1525303082932
 21
234.112796450945
 31
0.0
  0
LINE
  5
119
330
1F
100
AcDbEntity
  8
Sichtbare_Kanten_TC_020513_DIN_
  6
Continuous
 62
     7
100
AcDbLine
 10
257.9525303082932
 20
234.112796450945
 30
0.0
 11
252.1525303082932
 21
234.112796450945
 31
0.0
  0
LINE
  5
11A
330
1F
100
AcDbEntity
  8
Sichtbare_Kanten_TC_020513_DIN_
  6
Continuous
 62
     7
100
AcDbLine
 10
257.9525303082932
 20
234.112796450945
 30
0.0
 11
257.9525303082932
 21
230.112796450945
 31
0.0
  0
LINE
  5
11B
330
1F
100
AcDbEntity
  8
Sichtbare_Kanten_TC_020513_DIN_
  6
Continuous
 62
     7
100
AcDbLine
 10
137.8525303082932
 20
234.112796450945
 30
0.0
 11
137.8525303082932
 21
230.112796450945
 31
0.0
  0
LINE
  5
11C
330
1F
100
AcDbEntity
  8
Sichtbare_Kanten_TC_020513_DIN_
  6
Continuous
 62
     7
100
AcDbLine
 10
264.9025303082932
 20
223.112796450945
 30
0.0
 11
264.9025303082932
 21
231.112796450945
 31
0.0
  0
LINE
  5
11D
330
1F
100
AcDbEntity
  8
Sichtbare_Kanten_TC_020513_DIN_
  6
Continuous
 62
     7
100
AcDbLine
 10
263.5025303082922
 20
223.112796450945
 30
0.0
 11
263.5025303082922
 21
231.112796450945
 31
0.0
  0
LINE
  5
11E
330
1F
100
AcDbEntity
  8
Sichtbare_Kanten_TC_020513_DIN_
  6
Continuous
 62
     7
100
AcDbLine
 10
258.2425303082922
 20
224.612796450945
 30
0.0
 11
258.2425303082922
 21
229.612796450945
 31
0.0
  0
LINE
  5
11F
330
1F
100
AcDbEntity
  8
Sichtbare_Kanten_TC_020513_DIN_
  6
Continuous
 62
     7
100
AcDbLine
 10
258.2425303082922
 20
229.612796450945
 30
0.0
 11
259.5025303082922
 21
229.612796450945
 31
0.0
  0
LINE
  5
120
330
1F
100
AcDbEntity
  8
Sichtbare_Kanten_TC_020513_DIN_
  6
Continuous
 62
     7
100
AcDbLine
 10
260.9025303082932
 20
229.612796450945
 30
0.0
 11
261.5025303082922
 21
229.612796450945
 31
0.0
  0
LINE
  5
121
330
1F
100
AcDbEntity
  8
Sichtbare_Kanten_TC_020513_DIN_
  6
Continuous
 62
     7
100
AcDbLine
 10
258.2425303082922
 20
224.612796450945
 30
0.0
 11
259.5025303082922
 21
224.612796450945
 31
0.0
  0
LINE
  5
122
330
1F
100
AcDbEntity
  8
Sichtbare_Kanten_TC_020513_DIN_
  6
Continuous
 62
     7
100
AcDbLine
 10
260.9025303082932
 20
224.612796450945
 30
0.0
 11
261.5025303082922
 21
224.612796450945
 31
0.0
  0
LINE
  5
123
330
1F
100
AcDbEntity
  8
Sichtbare_Kanten_TC_020513_DIN_
  6
Continuous
 62
     7
100
AcDbLine
 10
262.9025303082932
 20
229.612796450945
 30
0.0
 11
263.5025303082922
 21
229.612796450945
 31
0.0
  0
LINE
  5
124
330
1F
100
AcDbEntity
  8
Sichtbare_Kanten_TC_020513_DIN_
  6
Continuous
 62
     7
100
AcDbLine
 10
262.9025303082932
 20
224.612796450945
 30
0.0
 11
263.5025303082922
 21
224.612796450945
 31
0.0
  0
LINE
  5
125
330
1F
100
AcDbEntity
  8
Sichtbare_Kanten_TC_020513_DIN_
  6
Continuous
 62
     7
100
AcDbLine
 10
258.1525303082932
 20
228.612796450945
 30
0.0
 11
258.2425303082922
 21
228.612796450945
 31
0.0
  0
LINE
  5
126
330
1F
100
AcDbEntity
  8
Sichtbare_Kanten_TC_020513_DIN_
  6
Continuous
 62
     7
100
AcDbLine
 10
258.1525303082932
 20
225.612796450945
 30
0.0
 11
258.2425303082922
 21
225.612796450945
 31
0.0
  0
LINE
  5
127
330
1F
100
AcDbEntity
  8
Sichtbare_Kanten_TC_020513_DIN_
  6
Continuous
 62
     7
100
AcDbLine
 10
130.9025303082932
 20
223.112796450945
 30
0.0
 11
130.9025303082932
 21
231.112796450945
 31
0.0
  0
LINE
  5
128
330
1F
100
AcDbEntity
  8
Sichtbare_Kanten_TC_020513_DIN_
  6
Continuous
 62
     7
100
AcDbLine
 10
132.3025303082923
 20
223.112796450945
 30
0.0
 11
132.3025303082923
 21
231.112796450945
 31
0.0
  0
LINE
  5
129
330
1F
100
AcDbEntity
  8
Sichtbare_Kanten_TC_020513_DIN_
  6
Continuous
 62
     7
100
AcDbLine
 10
137.5625303082933
 20
224.612796450945
 30
0.0
 11
137.5625303082933
 21
229.612796450945
 31
0.0
  0
LINE
  5
12A
330
1F
100
AcDbEntity
  8
Sichtbare_Kanten_TC_020513_DIN_
  6
Continuous
 62
     7
100
AcDbLine
 10
134.3025303082923
 20
229.612796450945
 30
0.0
 11
134.9025303082932
 21
229.612796450945
 31
0.0
  0
LINE
  5
12B
330
1F
100
AcDbEntity
  8
Sichtbare_Kanten_TC_020513_DIN_
  6
Continuous
 62
     7
100
AcDbLine
 10
136.3025303082923
 20
229.612796450945
 30
0.0
 11
137.5625303082933
 21
229.612796450945
 31
0.0
  0
LINE
  5
12C
330
1F
100
AcDbEntity
  8
Sichtbare_Kanten_TC_020513_DIN_
  6
Continuous
 62
     7
100
AcDbLine
 10
134.3025303082923
 20
224.612796450945
 30
0.0
 11
134.9025303082932
 21
224.612796450945
 31
0.0
  0
LINE
  5
12D
330
1F
100
AcDbEntity
  8
Sichtbare_Kanten_TC_020513_DIN_
  6
Continuous
 62
     7
100
AcDbLine
 10
136.3025303082923
 20
224.612796450945
 30
0.0
 11
137.5625303082933
 21
224.612796450945
 31
0.0
  0
LINE
  5
12E
330
1F
100
AcDbEntity
  8
Sichtbare_Kanten_TC_020513_DIN_
  6
Continuous
 62
     7
100
AcDbLine
 10
132.3025303082923
 20
229.612796450945
 30
0.0
 11
132.9025303082932
 21
229.612796450945
 31
0.0
  0
LINE
  5
12F
330
1F
100
AcDbEntity
  8
Sichtbare_Kanten_TC_020513_DIN_
  6
Continuous
 62
     7
100
AcDbLine
 10
132.3025303082923
 20
224.612796450945
 30
0.0
 11
132.9025303082932
 21
224.612796450945
 31
0.0
  0
LINE
  5
130
330
1F
100
AcDbEntity
  8
Sichtbare_Kanten_TC_020513_DIN_
  6
Continuous
 62
     7
100
AcDbLine
 10
137.5625303082933
 20
228.612796450945
 30
0.0
 11
137.6525303082932
 21
228.612796450945
 31
0.0
  0
LINE
  5
131
330
1F
100
AcDbEntity
  8
Sichtbare_Kanten_TC_020513_DIN_
  6
Continuous
 62
     7
100
AcDbLine
 10
137.5625303082933
 20
225.612796450945
 30
0.0
 11
137.6525303082932
 21
225.612796450945
 31
0.0
  0
LINE
  5
132
330
1F
100
AcDbEntity
  8
Sichtbare_Kanten_TC_020513_DIN_
  6
Continuous
 62
     7
100
AcDbLine
 10
269.9025303082932
 20
190.502796450945
 30
0.0
 11
269.9025303082932
 21
205.642796450945
 31
0.0
  0
LINE
  5
133
330
1F
100
AcDbEntity
  8
Sichtbare_Kanten_TC_020513_DIN_
  6
Continuous
 62
     7
100
AcDbLine
 10
269.9025303082932
 20
190.502796450945
 30
0.0
 11
269.9025303082932
 21
175.112796450945
 31
0.0
  0
LINE
  5
134
330
1F
100
AcDbEntity
  8
Sichtbare_Kanten_TC_020513_DIN_
  6
Continuous
 62
     7
100
AcDbLine
 10
269.9025303082932
 20
205.642796450945
 30
0.0
 11
258.1525303082932
 21
205.642796450945
 31
0.0
  0
LINE
  5
135
330
1F
100
AcDbEntity
  8
Sichtbare_Kanten_TC_020513_DIN_
  6
Continuous
 62
     7
100
AcDbLine
 10
200.9025303082932
 20
237.362796450945
 30
0.0
 11
200.1525303082932
 21
237.362796450945
 31
0.0
  0
LINE
  5
136
330
1F
100
AcDbEntity
  8
Sichtbare_Kanten_TC_020513_DIN_
  6
Continuous
 62
     7
100
AcDbLine
 10
200.1525303082932
 20
237.362796450945
 30
0.0
 11
200.1525303082932
 21
236.315360375545
 31
0.0
  0
LINE
  5
137
330
1F
100
AcDbEntity
  8
Sichtbare_Kanten_TC_020513_DIN_
  6
Continuous
 62
     7
100
AcDbLine
 10
200.1525303082932
 20
236.315360375545
 30
0.0
 11
200.7775996949202
 21
236.675977329369
 31
0.0
  0
LINE
  5
138
330
1F
100
AcDbEntity
  8
Sichtbare_Kanten_TC_020513_DIN_
  6
Continuous
 62
     7
100
AcDbLine
 10
201.0274609216652
 20
236.242884536344
 30
0.0
 11
200.0274609216652
 21
235.6659614594209
 31
0.0
  0
LINE
  5
139
330
1F
100
AcDbEntity
  8
Sichtbare_Kanten_TC_020513_DIN_
  6
Continuous
 62
     7
100
AcDbLine
 10
199.6525303082932
 20
235.882507855934
 30
0.0
 11
199.6525303082932
 21
239.343085045956
 31
0.0
  0
LINE
  5
13A
330
1F
100
AcDbEntity
  8
Sichtbare_Kanten_TC_020513_DIN_
  6
Continuous
 62
     7
100
AcDbLine
 10
200.1525303082932
 20
237.862796450945
 30
0.0
 11
200.9025303082932
 21
237.862796450945
 31
0.0
  0
LINE
  5
13B
330
1F
100
AcDbEntity
  8
Sichtbare_Kanten_TC_020513_DIN_
  6
Continuous
 62
     7
100
AcDbLine
 10
200.1525303082932
 20
238.910232526345
 30
0.0
 11
200.1525303082932
 21
237.862796450945
 31
0.0
  0
LINE
  5
13C
330
1F
100
AcDbEntity
  8
Sichtbare_Kanten_TC_020513_DIN_
  6
Continuous
 62
     7
100
AcDbLine
 10
200.7775996949202
 20
238.549615572521
 30
0.0
 11
200.1525303082932
 21
238.910232526345
 31
0.0
  0
LINE
  5
13D
330
1F
100
AcDbEntity
  8
Sichtbare_Kanten_TC_020513_DIN_
  6
Continuous
 62
     7
100
AcDbLine
 10
200.0274609216652
 20
239.559631442468
 30
0.0
 11
201.0274609216652
 21
238.982708365545
 31
0.0
  0
LINE
  5
13E
330
1F
100
AcDbEntity
  8
Sichtbare_Kanten_TC_020513_DIN_
  6
Continuous
 62
     7
100
AcDbLine
 10
194.6025303082932
 20
236.488277086703
 30
0.0
 11
194.6025303082932
 21
238.737315815187
 31
0.0
  0
LINE
  5
13F
330
1F
100
AcDbEntity
  8
Sichtbare_Kanten_TC_020513_DIN_
  6
Continuous
 62
     7
100
AcDbLine
 10
195.1025303082932
 20
238.737315815187
 30
0.0
 11
195.1025303082932
 21
236.488277086703
 31
0.0
  0
LINE
  5
140
330
1F
100
AcDbEntity
  8
Sichtbare_Kanten_TC_020513_DIN_
  6
Continuous
 62
     7
100
AcDbLine
 10
203.9022526076323
 20
237.612796450945
 30
0.0
 11
197.9025303082932
 21
241.074174700564
 31
0.0
  0
LINE
  5
141
330
1F
100
AcDbEntity
  8
Sichtbare_Kanten_TC_020513_DIN_
  6
Continuous
 62
     7
100
AcDbLine
 10
197.9025303082932
 20
241.074174700564
 30
0.0
 11
191.9028080089532
 21
237.612796450945
 31
0.0
  0
LINE
  5
142
330
1F
100
AcDbEntity
  8
Sichtbare_Kanten_TC_020513_DIN_
  6
Continuous
 62
     7
100
AcDbLine
 10
197.9025303082932
 20
241.362796450945
 30
0.0
 11
204.4025303082932
 21
237.612796450945
 31
0.0
  0
LINE
  5
143
330
1F
100
AcDbEntity
  8
Sichtbare_Kanten_TC_020513_DIN_
  6
Continuous
 62
     7
100
AcDbLine
 10
204.4025303082932
 20
237.612796450945
 30
0.0
 11
197.9025303082932
 21
233.862796450945
 31
0.0
  0
LINE
  5
144
330
1F
100
AcDbEntity
  8
Sichtbare_Kanten_TC_020513_DIN_
  6
Continuous
 62
     7
100
AcDbLine
 10
191.9028080089532
 20
237.612796450945
 30
0.0
 11
197.9025303082932
 21
234.151418201326
 31
0.0
  0
LINE
  5
145
330
1F
100
AcDbEntity
  8
Sichtbare_Kanten_TC_020513_DIN_
  6
Continuous
 62
     7
100
AcDbLine
 10
197.9025303082932
 20
234.151418201326
 30
0.0
 11
203.9022526076323
 21
237.612796450945
 31
0.0
  0
LINE
  5
146
330
1F
100
AcDbEntity
  8
Sichtbare_Kanten_TC_020513_DIN_
  6
Continuous
 62
     7
100
AcDbLine
 10
197.9025303082932
 20
233.862796450945
 30
0.0
 11
191.4025303082932
 21
237.612796450945
 31
0.0
  0
LINE
  5
147
330
1F
100
AcDbEntity
  8
Sichtbare_Kanten_TC_020513_DIN_
  6
Continuous
 62
     7
100
AcDbLine
 10
191.4025303082932
 20
237.612796450945
 30
0.0
 11
197.9025303082932
 21
241.362796450945
 31
0.0
  0
LINE
  5
148
330
1F
100
AcDbEntity
  8
Sichtbare_Kanten_TC_020513_DIN_
  6
Continuous
 62
     7
100
AcDbLine
 10
197.7775996949202
 20
234.512115305575
 30
0.0
 11
195.7275996949203
 21
235.6948076132679
 31
0.0
  0
LINE
  5
149
330
1F
100
AcDbEntity
  8
Sichtbare_Kanten_TC_020513_DIN_
  6
Continuous
 62
     7
100
AcDbLine
 10
195.6025303082932
 20
235.91135400978
 30
0.0
 11
195.6025303082932
 21
239.31423889211
 31
0.0
  0
LINE
  5
14A
330
1F
100
AcDbEntity
  8
Sichtbare_Kanten_TC_020513_DIN_
  6
Continuous
 62
     7
100
AcDbLine
 10
196.1025303082932
 20
236.05574499093
 30
0.0
 11
198.0274609216652
 21
234.9452080986
 31
0.0
  0
LINE
  5
14B
330
1F
100
AcDbEntity
  8
Sichtbare_Kanten_TC_020513_DIN_
  6
Continuous
 62
     7
100
AcDbLine
 10
196.1025303082932
 20
239.31423889211
 30
0.0
 11
196.1025303082932
 21
236.05574499093
 31
0.0
  0
LINE
  5
14C
330
1F
100
AcDbEntity
  8
Sichtbare_Kanten_TC_020513_DIN_
  6
Continuous
 62
     7
100
AcDbLine
 10
197.1050162146203
 20
240.066635056759
 30
0.0
 11
197.9025303082932
 21
238.965300126038
 31
0.0
  0
LINE
  5
14D
330
1F
100
AcDbEntity
  8
Sichtbare_Kanten_TC_020513_DIN_
  6
Continuous
 62
     7
100
AcDbLine
 10
197.9025303082932
 20
238.965300126038
 30
0.0
 11
198.7000444019652
 21
240.066635056759
 31
0.0
  0
LINE
  5
14E
330
1F
100
AcDbEntity
  8
Sichtbare_Kanten_TC_020513_DIN_
  6
Continuous
 62
     7
100
AcDbLine
 10
199.1525303082932
 20
239.920008122879
 30
0.0
 11
199.1525303082932
 21
235.3055847790109
 31
0.0
  0
LINE
  5
14F
330
1F
100
AcDbEntity
  8
Sichtbare_Kanten_TC_020513_DIN_
  6
Continuous
 62
     7
100
AcDbLine
 10
198.6525303082932
 20
235.3055847790109
 30
0.0
 11
198.6525303082932
 21
239.1485163267359
 31
0.0
  0
LINE
  5
150
330
1F
100
AcDbEntity
  8
Sichtbare_Kanten_TC_020513_DIN_
  6
Continuous
 62
     7
100
AcDbLine
 10
198.6525303082932
 20
239.1485163267359
 30
0.0
 11
197.9025303082932
 21
238.112796450945
 31
0.0
  0
LINE
  5
151
330
1F
100
AcDbEntity
  8
Sichtbare_Kanten_TC_020513_DIN_
  6
Continuous
 62
     7
100
AcDbLine
 10
196.6525303082932
 20
236.488277086703
 30
0.0
 11
196.6525303082932
 21
239.920008122879
 31
0.0
  0
LINE
  5
152
330
1F
100
AcDbEntity
  8
Sichtbare_Kanten_TC_020513_DIN_
  6
Continuous
 62
     7
100
AcDbLine
 10
197.1525303082932
 20
239.1485163267359
 30
0.0
 11
197.1525303082932
 21
236.488277086703
 31
0.0
  0
LINE
  5
153
330
1F
100
AcDbEntity
  8
Sichtbare_Kanten_TC_020513_DIN_
  6
Continuous
 62
     7
100
AcDbLine
 10
197.9025303082932
 20
238.112796450945
 30
0.0
 11
197.1525303082932
 21
239.1485163267359
 31
0.0
  0
LINE
  5
154
330
1F
100
AcDbEntity
  8
Sichtbare_Kanten_TC_020513_DIN_
  6
Continuous
 62
     7
100
AcDbLine
 10
248.0260130838723
 20
232.913604757443
 30
0.0
 11
248.3944115491303
 21
234.2884865472159
 31
0.0
  0
LINE
  5
155
330
1F
100
AcDbEntity
  8
Sichtbare_Kanten_TC_020513_DIN_
  6
Continuous
 62
     7
100
AcDbLine
 10
248.6358930057022
 20
234.47378178594
 30
0.0
 11
258.1025303082932
 21
234.47378178594
 31
0.0
  0
LINE
  5
156
330
1F
100
AcDbEntity
  8
Sichtbare_Kanten_TC_020513_DIN_
  6
Continuous
 62
     7
100
AcDbLine
 10
258.1025303082932
 20
244.47378178594
 30
0.0
 11
256.1358930057022
 21
244.47378178594
 31
0.0
  0
LINE
  5
157
330
1F
100
AcDbEntity
  8
Sichtbare_Kanten_TC_020513_DIN_
  6
Continuous
 62
     7
100
AcDbLine
 10
255.3698485625832
 20
244.116569395626
 30
0.0
 11
254.2911228701562
 21
242.8309941762529
 31
0.0
  0
LINE
  5
158
330
1F
100
AcDbEntity
  8
Sichtbare_Kanten_TC_020513_DIN_
  6
Continuous
 62
     7
100
AcDbLine
 10
253.5250784270372
 20
242.47378178594
 30
0.0
 11
248.6358930057022
 21
242.47378178594
 31
0.0
  0
LINE
  5
159
330
1F
100
AcDbEntity
  8
Sichtbare_Kanten_TC_020513_DIN_
  6
Continuous
 62
     7
100
AcDbLine
 10
246.5247433827752
 20
244.2904190885309
 30
0.0
 11
245.2026082760423
 21
244.2904190885309
 31
0.0
  0
LINE
  5
15A
330
1F
100
AcDbEntity
  8
Sichtbare_Kanten_TC_020513_DIN_
  6
Continuous
 62
     7
100
AcDbLine
 10
243.2707566234642
 20
244.2904190885309
 30
0.0
 11
245.2026082760423
 21
244.2904190885309
 31
0.0
  0
LINE
  5
15B
330
1F
100
AcDbEntity
  8
Sichtbare_Kanten_TC_020513_DIN_
  6
Continuous
 62
     7
100
AcDbLine
 10
246.1617670110162
 20
226.813568020756
 30
0.0
 11
247.7903126638182
 21
232.321939191006
 31
0.0
  0
LINE
  5
15C
330
1F
100
AcDbEntity
  8
Sichtbare_Kanten_TC_020513_DIN_
  6
Continuous
 62
     7
100
AcDbLine
 10
245.2026082760423
 20
245.690419088531
 30
0.0
 11
243.2707566234642
 21
245.690419088531
 31
0.0
  0
LINE
  5
15D
330
1F
100
AcDbEntity
  8
Sichtbare_Kanten_TC_020513_DIN_
  6
Continuous
 62
     7
100
AcDbLine
 10
245.2026082760423
 20
245.690419088531
 30
0.0
 11
246.5247433827752
 21
245.690419088531
 31
0.0
  0
LINE
  5
15E
330
1F
100
AcDbEntity
  8
Sichtbare_Kanten_TC_020513_DIN_
  6
Continuous
 62
     7
100
AcDbLine
 10
260.9025303082932
 20
246.9562577197349
 30
0.0
 11
260.9025303082932
 21
244.909038035136
 31
0.0
  0
LINE
  5
15F
330
1F
100
AcDbEntity
  8
Sichtbare_Kanten_TC_020513_DIN_
  6
Continuous
 62
     7
100
AcDbLine
 10
259.5025303082922
 20
244.909038035136
 30
0.0
 11
259.5025303082922
 21
246.9562577197349
 31
0.0
  0
LINE
  5
160
330
1F
100
AcDbEntity
  8
Sichtbare_Kanten_TC_020513_DIN_
  6
Continuous
 62
     7
100
AcDbLine
 10
260.9025303082932
 20
234.47378178594
 30
0.0
 11
260.9025303082932
 21
230.504946214038
 31
0.0
  0
LINE
  5
161
330
1F
100
AcDbEntity
  8
Sichtbare_Kanten_TC_020513_DIN_
  6
Continuous
 62
     7
100
AcDbLine
 10
260.9025303082932
 20
230.504946214038
 30
0.0
 11
260.9025303082932
 21
230.156374322319
 31
0.0
  0
LINE
  5
162
330
1F
100
AcDbEntity
  8
Sichtbare_Kanten_TC_020513_DIN_
  6
Continuous
 62
     7
100
AcDbLine
 10
260.9025303082932
 20
230.156374322319
 30
0.0
 11
260.9025303082932
 21
225.328394766216
 31
0.0
  0
LINE
  5
163
330
1F
100
AcDbEntity
  8
Sichtbare_Kanten_TC_020513_DIN_
  6
Continuous
 62
     7
100
AcDbLine
 10
260.9025303082932
 20
217.112796450945
 30
0.0
 11
260.9025303082932
 21
225.328394766216
 31
0.0
  0
LINE
  5
164
330
1F
100
AcDbEntity
  8
Sichtbare_Kanten_TC_020513_DIN_
  6
Continuous
 62
     7
100
AcDbLine
 10
260.9025303082932
 20
217.112796450945
 30
0.0
 11
260.9025303082932
 21
216.975141535938
 31
0.0
  0
LINE
  5
165
330
1F
100
AcDbEntity
  8
Sichtbare_Kanten_TC_020513_DIN_
  6
Continuous
 62
     7
100
AcDbLine
 10
260.9025303082932
 20
246.9562577197349
 30
0.0
 11
260.9025303082932
 21
252.112796450945
 31
0.0
  0
LINE
  5
166
330
1F
100
AcDbEntity
  8
Sichtbare_Kanten_TC_020513_DIN_
  6
Continuous
 62
     7
100
AcDbLine
 10
259.5025303082922
 20
252.112796450945
 30
0.0
 11
259.5025303082922
 21
246.9562577197349
 31
0.0
  0
LINE
  5
167
330
1F
100
AcDbEntity
  8
Sichtbare_Kanten_TC_020513_DIN_
  6
Continuous
 62
     7
100
AcDbLine
 10
259.5025303082922
 20
216.975141535938
 30
0.0
 11
259.5025303082922
 21
217.112796450945
 31
0.0
  0
LINE
  5
168
330
1F
100
AcDbEntity
  8
Sichtbare_Kanten_TC_020513_DIN_
  6
Continuous
 62
     7
100
AcDbLine
 10
259.5025303082922
 20
225.328394766216
 30
0.0
 11
259.5025303082922
 21
217.112796450945
 31
0.0
  0
LINE
  5
169
330
1F
100
AcDbEntity
  8
Sichtbare_Kanten_TC_020513_DIN_
  6
Continuous
 62
     7
100
AcDbLine
 10
259.5025303082922
 20
225.328394766216
 30
0.0
 11
259.5025303082922
 21
230.156374322319
 31
0.0
  0
LINE
  5
16A
330
1F
100
AcDbEntity
  8
Sichtbare_Kanten_TC_020513_DIN_
  6
Continuous
 62
     7
100
AcDbLine
 10
259.5025303082922
 20
230.156374322319
 30
0.0
 11
259.5025303082922
 21
230.504946214038
 31
0.0
  0
LINE
  5
16B
330
1F
100
AcDbEntity
  8
Sichtbare_Kanten_TC_020513_DIN_
  6
Continuous
 62
     7
100
AcDbLine
 10
259.5025303082922
 20
230.504946214038
 30
0.0
 11
259.5025303082922
 21
234.47378178594
 31
0.0
  0
LINE
  5
16C
330
1F
100
AcDbEntity
  8
Sichtbare_Kanten_TC_020513_DIN_
  6
Continuous
 62
     7
100
AcDbLine
 10
260.9025303082932
 20
217.112796450945
 30
0.0
 11
259.5025303082922
 21
217.112796450945
 31
0.0
  0
LINE
  5
16D
330
1F
100
AcDbEntity
  8
Sichtbare_Kanten_TC_020513_DIN_
  6
Continuous
 62
     7
100
AcDbLine
 10
260.9025303082932
 20
252.112796450945
 30
0.0
 11
259.5025303082922
 21
252.112796450945
 31
0.0
  0
LINE
  5
16E
330
1F
100
AcDbEntity
  8
Sichtbare_Kanten_TC_020513_DIN_
  6
Continuous
 62
     7
100
AcDbLine
 10
261.0025303082922
 20
216.875141535937
 30
0.0
 11
261.2365188797082
 21
216.875141535937
 31
0.0
  0
LINE
  5
16F
330
1F
100
AcDbEntity
  8
Sichtbare_Kanten_TC_020513_DIN_
  6
Continuous
 62
     7
100
AcDbLine
 10
262.9025303082932
 20
216.875141535937
 30
0.0
 11
263.4401852233002
 21
216.8751415359379
 31
0.0
  0
LINE
  5
170
330
1F
100
AcDbEntity
  8
Sichtbare_Kanten_TC_020513_DIN_
  6
Continuous
 62
     7
100
AcDbLine
 10
263.9401852233002
 20
216.8751415359379
 30
0.0
 11
263.4401852233002
 21
216.8751415359379
 31
0.0
  0
LINE
  5
171
330
1F
100
AcDbEntity
  8
Sichtbare_Kanten_TC_020513_DIN_
  6
Continuous
 62
     7
100
AcDbLine
 10
263.4401852233002
 20
215.475141535938
 30
0.0
 11
262.9025303082932
 21
215.475141535938
 31
0.0
  0
LINE
  5
172
330
1F
100
AcDbEntity
  8
Sichtbare_Kanten_TC_020513_DIN_
  6
Continuous
 62
     7
100
AcDbLine
 10
263.4401852233002
 20
215.475141535938
 30
0.0
 11
263.9401852233002
 21
215.475141535938
 31
0.0
  0
LINE
  5
173
330
1F
100
AcDbEntity
  8
Sichtbare_Kanten_TC_020513_DIN_
  6
Continuous
 62
     7
100
AcDbLine
 10
263.9401852233002
 20
216.8751415359379
 30
0.0
 11
263.9401852233002
 21
215.475141535938
 31
0.0
  0
LINE
  5
174
330
1F
100
AcDbEntity
  8
Sichtbare_Kanten_TC_020513_DIN_
  6
Continuous
 62
     7
100
AcDbLine
 10
247.7903126638182
 20
231.730273624569
 30
0.0
 11
246.1617670110162
 21
226.221902454319
 31
0.0
  0
LINE
  5
175
330
1F
100
AcDbEntity
  8
Sichtbare_Kanten_TC_020513_DIN_
  6
Continuous
 62
     7
100
AcDbLine
 10
142.2799821895483
 20
242.47378178594
 30
0.0
 11
147.1691676108832
 21
242.47378178594
 31
0.0
  0
LINE
  5
176
330
1F
100
AcDbEntity
  8
Sichtbare_Kanten_TC_020513_DIN_
  6
Continuous
 62
     7
100
AcDbLine
 10
140.4352120540023
 20
244.116569395626
 30
0.0
 11
141.5139377464292
 21
242.8309941762529
 31
0.0
  0
LINE
  5
177
330
1F
100
AcDbEntity
  8
Sichtbare_Kanten_TC_020513_DIN_
  6
Continuous
 62
     7
100
AcDbLine
 10
137.7025303082933
 20
244.47378178594
 30
0.0
 11
139.6691676108832
 21
244.47378178594
 31
0.0
  0
LINE
  5
178
330
1F
100
AcDbEntity
  8
Sichtbare_Kanten_TC_020513_DIN_
  6
Continuous
 62
     7
100
AcDbLine
 10
147.1691676108832
 20
234.47378178594
 30
0.0
 11
137.7025303082933
 21
234.47378178594
 31
0.0
  0
LINE
  5
179
330
1F
100
AcDbEntity
  8
Sichtbare_Kanten_TC_020513_DIN_
  6
Continuous
 62
     7
100
AcDbLine
 10
147.7790475327132
 20
232.913604757443
 30
0.0
 11
147.4106490674552
 21
234.2884865472159
 31
0.0
  0
LINE
  5
17A
330
1F
100
AcDbEntity
  8
Sichtbare_Kanten_TC_020513_DIN_
  6
Continuous
 62
     7
100
AcDbLine
 10
134.9025303082932
 20
217.112796450945
 30
0.0
 11
134.9025303082932
 21
216.975141535938
 31
0.0
  0
LINE
  5
17B
330
1F
100
AcDbEntity
  8
Sichtbare_Kanten_TC_020513_DIN_
  6
Continuous
 62
     7
100
AcDbLine
 10
134.9025303082932
 20
217.112796450945
 30
0.0
 11
134.9025303082932
 21
225.328394766216
 31
0.0
  0
LINE
  5
17C
330
1F
100
AcDbEntity
  8
Sichtbare_Kanten_TC_020513_DIN_
  6
Continuous
 62
     7
100
AcDbLine
 10
134.9025303082932
 20
230.156374322319
 30
0.0
 11
134.9025303082932
 21
225.328394766216
 31
0.0
  0
LINE
  5
17D
330
1F
100
AcDbEntity
  8
Sichtbare_Kanten_TC_020513_DIN_
  6
Continuous
 62
     7
100
AcDbLine
 10
134.9025303082932
 20
230.504946214038
 30
0.0
 11
134.9025303082932
 21
230.156374322319
 31
0.0
  0
LINE
  5
17E
330
1F
100
AcDbEntity
  8
Sichtbare_Kanten_TC_020513_DIN_
  6
Continuous
 62
     7
100
AcDbLine
 10
134.9025303082932
 20
234.47378178594
 30
0.0
 11
134.9025303082932
 21
230.504946214038
 31
0.0
  0
LINE
  5
17F
330
1F
100
AcDbEntity
  8
Sichtbare_Kanten_TC_020513_DIN_
  6
Continuous
 62
     7
100
AcDbLine
 10
134.9025303082932
 20
246.9562577197349
 30
0.0
 11
134.9025303082932
 21
244.909038035136
 31
0.0
  0
LINE
  5
180
330
1F
100
AcDbEntity
  8
Sichtbare_Kanten_TC_020513_DIN_
  6
Continuous
 62
     7
100
AcDbLine
 10
134.9025303082932
 20
246.9562577197349
 30
0.0
 11
134.9025303082932
 21
252.112796450945
 31
0.0
  0
LINE
  5
181
330
1F
100
AcDbEntity
  8
Sichtbare_Kanten_TC_020513_DIN_
  6
Continuous
 62
     7
100
AcDbLine
 10
136.3025303082923
 20
252.112796450945
 30
0.0
 11
136.3025303082923
 21
246.9562577197349
 31
0.0
  0
LINE
  5
182
330
1F
100
AcDbEntity
  8
Sichtbare_Kanten_TC_020513_DIN_
  6
Continuous
 62
     7
100
AcDbLine
 10
136.3025303082923
 20
244.909038035136
 30
0.0
 11
136.3025303082923
 21
246.9562577197349
 31
0.0
  0
LINE
  5
183
330
1F
100
AcDbEntity
  8
Sichtbare_Kanten_TC_020513_DIN_
  6
Continuous
 62
     7
100
AcDbLine
 10
136.3025303082923
 20
230.504946214038
 30
0.0
 11
136.3025303082923
 21
234.47378178594
 31
0.0
  0
LINE
  5
184
330
1F
100
AcDbEntity
  8
Sichtbare_Kanten_TC_020513_DIN_
  6
Continuous
 62
     7
100
AcDbLine
 10
136.3025303082923
 20
230.156374322319
 30
0.0
 11
136.3025303082923
 21
230.504946214038
 31
0.0
  0
LINE
  5
185
330
1F
100
AcDbEntity
  8
Sichtbare_Kanten_TC_020513_DIN_
  6
Continuous
 62
     7
100
AcDbLine
 10
136.3025303082923
 20
225.328394766216
 30
0.0
 11
136.3025303082923
 21
230.156374322319
 31
0.0
  0
LINE
  5
186
330
1F
100
AcDbEntity
  8
Sichtbare_Kanten_TC_020513_DIN_
  6
Continuous
 62
     7
100
AcDbLine
 10
136.3025303082923
 20
225.328394766216
 30
0.0
 11
136.3025303082923
 21
217.112796450945
 31
0.0
  0
LINE
  5
187
330
1F
100
AcDbEntity
  8
Sichtbare_Kanten_TC_020513_DIN_
  6
Continuous
 62
     7
100
AcDbLine
 10
136.3025303082923
 20
216.975141535938
 30
0.0
 11
136.3025303082923
 21
217.112796450945
 31
0.0
  0
LINE
  5
188
330
1F
100
AcDbEntity
  8
Sichtbare_Kanten_TC_020513_DIN_
  6
Continuous
 62
     7
100
AcDbLine
 10
134.9025303082932
 20
217.112796450945
 30
0.0
 11
136.3025303082923
 21
217.112796450945
 31
0.0
  0
LINE
  5
189
330
1F
100
AcDbEntity
  8
Sichtbare_Kanten_TC_020513_DIN_
  6
Continuous
 62
     7
100
AcDbLine
 10
134.9025303082932
 20
252.112796450945
 30
0.0
 11
136.3025303082923
 21
252.112796450945
 31
0.0
  0
LINE
  5
18A
330
1F
100
AcDbEntity
  8
Sichtbare_Kanten_TC_020513_DIN_
  6
Continuous
 62
     7
100
AcDbLine
 10
150.6024523405432
 20
245.690419088531
 30
0.0
 11
152.5343039931212
 21
245.690419088531
 31
0.0
  0
LINE
  5
18B
330
1F
100
AcDbEntity
  8
Sichtbare_Kanten_TC_020513_DIN_
  6
Continuous
 62
     7
100
AcDbLine
 10
152.5343039931212
 20
244.2904190885309
 30
0.0
 11
150.6024523405432
 21
244.2904190885309
 31
0.0
  0
LINE
  5
18C
330
1F
100
AcDbEntity
  8
Sichtbare_Kanten_TC_020513_DIN_
  6
Continuous
 62
     7
100
AcDbLine
 10
149.2803172338103
 20
244.2904190885309
 30
0.0
 11
150.6024523405432
 21
244.2904190885309
 31
0.0
  0
LINE
  5
18D
330
1F
100
AcDbEntity
  8
Sichtbare_Kanten_TC_020513_DIN_
  6
Continuous
 62
     7
100
AcDbLine
 10
150.6024523405432
 20
245.690419088531
 30
0.0
 11
149.2803172338103
 21
245.690419088531
 31
0.0
  0
LINE
  5
18E
330
1F
100
AcDbEntity
  8
Sichtbare_Kanten_TC_020513_DIN_
  6
Continuous
 62
     7
100
AcDbLine
 10
134.8025303082923
 20
216.875141535937
 30
0.0
 11
134.5685417368773
 21
216.875141535937
 31
0.0
  0
LINE
  5
18F
330
1F
100
AcDbEntity
  8
Sichtbare_Kanten_TC_020513_DIN_
  6
Continuous
 62
     7
100
AcDbLine
 10
132.9025303082932
 20
216.875141535937
 30
0.0
 11
132.3648753932852
 21
216.8751415359379
 31
0.0
  0
LINE
  5
190
330
1F
100
AcDbEntity
  8
Sichtbare_Kanten_TC_020513_DIN_
  6
Continuous
 62
     7
100
AcDbLine
 10
132.3648753932852
 20
215.475141535938
 30
0.0
 11
132.9025303082932
 21
215.475141535938
 31
0.0
  0
LINE
  5
191
330
1F
100
AcDbEntity
  8
Sichtbare_Kanten_TC_020513_DIN_
  6
Continuous
 62
     7
100
AcDbLine
 10
132.3648753932852
 20
215.475141535938
 30
0.0
 11
131.8648753932852
 21
215.475141535938
 31
0.0
  0
LINE
  5
192
330
1F
100
AcDbEntity
  8
Sichtbare_Kanten_TC_020513_DIN_
  6
Continuous
 62
     7
100
AcDbLine
 10
131.8648753932852
 20
216.8751415359379
 30
0.0
 11
132.3648753932852
 21
216.8751415359379
 31
0.0
  0
LINE
  5
193
330
1F
100
AcDbEntity
  8
Sichtbare_Kanten_TC_020513_DIN_
  6
Continuous
 62
     7
100
AcDbLine
 10
131.8648753932852
 20
216.8751415359379
 30
0.0
 11
131.8648753932852
 21
215.475141535938
 31
0.0
  0
LINE
  5
194
330
1F
100
AcDbEntity
  8
Sichtbare_Kanten_TC_020513_DIN_
  6
Continuous
 62
     7
100
AcDbLine
 10
148.0147479527673
 20
231.730273624569
 30
0.0
 11
149.6432936055693
 21
226.221902454319
 31
0.0
  0
LINE
  5
195
330
1F
100
AcDbEntity
  8
Sichtbare_Kanten_TC_020513_DIN_
  6
Continuous
 62
     7
100
AcDbLine
 10
149.6432936055693
 20
226.813568020756
 30
0.0
 11
148.0147479527673
 21
232.321939191006
 31
0.0
  0
LINE
  5
196
330
1F
100
AcDbEntity
  8
Sichtbare_Kanten_TC_020513_DIN_
  6
Continuous
 62
     7
100
AcDbLine
 10
243.2707566234642
 20
244.2904190885309
 30
0.0
 11
152.5343039931212
 21
244.2904190885309
 31
0.0
  0
LINE
  5
197
330
1F
100
AcDbEntity
  8
Sichtbare_Kanten_TC_020513_DIN_
  6
Continuous
 62
     7
100
AcDbLine
 10
243.2707566234642
 20
245.690419088531
 30
0.0
 11
152.5343039931212
 21
245.690419088531
 31
0.0
  0
LINE
  5
198
330
1F
100
AcDbEntity
  8
Sichtbare_Kanten_TC_020513_DIN_
  6
Continuous
 62
     7
100
AcDbLine
 10
151.5751452581472
 20
225.470091878703
 30
0.0
 11
244.2299153584382
 21
225.470091878703
 31
0.0
  0
LINE
  5
199
330
1F
100
AcDbEntity
  8
Sichtbare_Kanten_TC_020513_DIN_
  6
Continuous
 62
     7
100
AcDbLine
 10
244.2299153584382
 20
224.878426312266
 30
0.0
 11
151.5751452581472
 21
224.878426312266
 31
0.0
  0
LINE
  5
19A
330
1F
100
AcDbEntity
  8
Sichtbare_Kanten_TC_020513_DIN_
  6
Continuous
 62
     7
100
AcDbLine
 10
148.0147479527673
 20
232.061604713453
 30
0.0
 11
148.0147479527673
 21
231.730273624569
 31
0.0
  0
LINE
  5
19B
330
1F
100
AcDbEntity
  8
Sichtbare_Kanten_TC_020513_DIN_
  6
Continuous
 62
     7
100
AcDbLine
 10
148.0147479527673
 20
232.321939191006
 30
0.0
 11
148.0147479527673
 21
232.061604713453
 31
0.0
  0
LINE
  5
19C
330
1F
100
AcDbEntity
  8
Sichtbare_Kanten_TC_020513_DIN_
  6
Continuous
 62
     7
100
AcDbLine
 10
134.9025303082932
 20
234.47378178594
 30
0.0
 11
134.9025303082932
 21
244.909038035136
 31
0.0
  0
LINE
  5
19D
330
1F
100
AcDbEntity
  8
Sichtbare_Kanten_TC_020513_DIN_
  6
Continuous
 62
     7
100
AcDbLine
 10
135.6865283955132
 20
244.909038035136
 30
0.0
 11
136.3025303082923
 21
244.909038035136
 31
0.0
  0
LINE
  5
19E
330
1F
100
AcDbEntity
  8
Sichtbare_Kanten_TC_020513_DIN_
  6
Continuous
 62
     7
100
AcDbLine
 10
134.9025303082932
 20
244.909038035136
 30
0.0
 11
135.6865283955132
 21
244.909038035136
 31
0.0
  0
LINE
  5
19F
330
1F
100
AcDbEntity
  8
Sichtbare_Kanten_TC_020513_DIN_
  6
Continuous
 62
     7
100
AcDbLine
 10
137.7025303082933
 20
234.47378178594
 30
0.0
 11
134.9025303082932
 21
234.47378178594
 31
0.0
  0
LINE
  5
1A0
330
1F
100
AcDbEntity
  8
Sichtbare_Kanten_TC_020513_DIN_
  6
Continuous
 62
     7
100
AcDbLine
 10
135.3334697799493
 20
244.47378178594
 30
0.0
 11
137.7025303082933
 21
244.47378178594
 31
0.0
  0
LINE
  5
1A1
330
1F
100
AcDbEntity
  8
Sichtbare_Kanten_TC_020513_DIN_
  6
Continuous
 62
     7
100
AcDbLine
 10
149.2803172338103
 20
244.906420218812
 30
0.0
 11
149.2803172338103
 21
244.2904190885309
 31
0.0
  0
LINE
  5
1A2
330
1F
100
AcDbEntity
  8
Sichtbare_Kanten_TC_020513_DIN_
  6
Continuous
 62
     7
100
AcDbLine
 10
149.2803172338103
 20
245.690419088531
 30
0.0
 11
149.2803172338103
 21
244.906420218812
 31
0.0
  0
LINE
  5
1A3
330
1F
100
AcDbEntity
  8
Sichtbare_Kanten_TC_020513_DIN_
  6
Continuous
 62
     7
100
AcDbLine
 10
246.5247433827752
 20
244.906420218812
 30
0.0
 11
246.5247433827752
 21
245.690419088531
 31
0.0
  0
LINE
  5
1A4
330
1F
100
AcDbEntity
  8
Sichtbare_Kanten_TC_020513_DIN_
  6
Continuous
 62
     7
100
AcDbLine
 10
246.5247433827752
 20
244.2904190885309
 30
0.0
 11
246.5247433827752
 21
244.906420218812
 31
0.0
  0
LINE
  5
1A5
330
1F
100
AcDbEntity
  8
Sichtbare_Kanten_TC_020513_DIN_
  6
Continuous
 62
     7
100
AcDbLine
 10
247.7903126638182
 20
232.061604713451
 30
0.0
 11
247.7903126638182
 21
232.321939191006
 31
0.0
  0
LINE
  5
1A6
330
1F
100
AcDbEntity
  8
Sichtbare_Kanten_TC_020513_DIN_
  6
Continuous
 62
     7
100
AcDbLine
 10
247.7903126638182
 20
231.730273624569
 30
0.0
 11
247.7903126638182
 21
232.061604713451
 31
0.0
  0
LINE
  5
1A7
330
1F
100
AcDbEntity
  8
Sichtbare_Kanten_TC_020513_DIN_
  6
Continuous
 62
     7
100
AcDbLine
 10
260.1185322210712
 20
244.909038035136
 30
0.0
 11
260.9025303082932
 21
244.909038035136
 31
0.0
  0
LINE
  5
1A8
330
1F
100
AcDbEntity
  8
Sichtbare_Kanten_TC_020513_DIN_
  6
Continuous
 62
     7
100
AcDbLine
 10
259.5025303082922
 20
244.909038035136
 30
0.0
 11
260.1185322210712
 21
244.909038035136
 31
0.0
  0
LINE
  5
1A9
330
1F
100
AcDbEntity
  8
Sichtbare_Kanten_TC_020513_DIN_
  6
Continuous
 62
     7
100
AcDbLine
 10
258.1025303082932
 20
244.47378178594
 30
0.0
 11
260.4715908366362
 21
244.47378178594
 31
0.0
  0
LINE
  5
1AA
330
1F
100
AcDbEntity
  8
Sichtbare_Kanten_TC_020513_DIN_
  6
Continuous
 62
     7
100
AcDbLine
 10
260.9025303082932
 20
234.47378178594
 30
0.0
 11
258.1025303082932
 21
234.47378178594
 31
0.0
  0
LINE
  5
1AB
330
1F
100
AcDbEntity
  8
Sichtbare_Kanten_TC_020513_DIN_
  6
Continuous
 62
     7
100
AcDbLine
 10
260.9025303082932
 20
244.909038035136
 30
0.0
 11
260.9025303082932
 21
234.47378178594
 31
0.0
  0
LINE
  5
1AC
330
1F
100
AcDbEntity
  8
Sichtbare_Kanten_TC_020513_DIN_
  6
Continuous
 62
     7
100
AcDbLine
 10
131.1525303082932
 20
278.112796450945
 30
0.0
 11
131.1525303082932
 21
269.112796450945
 31
0.0
  0
LINE
  5
1AD
330
1F
100
AcDbEntity
  8
Sichtbare_Kanten_TC_020513_DIN_
  6
Continuous
 62
     7
100
AcDbLine
 10
136.1525303082932
 20
269.112796450945
 30
0.0
 11
131.1525303082932
 21
269.112796450945
 31
0.0
  0
LINE
  5
1AE
330
1F
100
AcDbEntity
  8
Sichtbare_Kanten_TC_020513_DIN_
  6
Continuous
 62
     7
100
AcDbLine
 10
136.1525303082932
 20
278.112796450945
 30
0.0
 11
131.1525303082932
 21
278.112796450945
 31
0.0
  0
LINE
  5
1AF
330
1F
100
AcDbEntity
  8
Sichtbare_Kanten_TC_020513_DIN_
  6
Continuous
 62
     7
100
AcDbLine
 10
264.6525303082932
 20
278.112796450945
 30
0.0
 11
264.6525303082932
 21
269.112796450945
 31
0.0
  0
LINE
  5
1B0
330
1F
100
AcDbEntity
  8
Sichtbare_Kanten_TC_020513_DIN_
  6
Continuous
 62
     7
100
AcDbLine
 10
264.6525303082932
 20
269.112796450945
 30
0.0
 11
259.6525303082932
 21
269.112796450945
 31
0.0
  0
LINE
  5
1B1
330
1F
100
AcDbEntity
  8
Sichtbare_Kanten_TC_020513_DIN_
  6
Continuous
 62
     7
100
AcDbLine
 10
264.6525303082932
 20
278.112796450945
 30
0.0
 11
259.6525303082932
 21
278.112796450945
 31
0.0
  0
LINE
  5
1B2
330
1F
100
AcDbEntity
  8
Sichtbare_Kanten_TC_020513_DIN_
  6
Continuous
 62
     7
100
AcDbLine
 10
188.9025303082932
 20
298.612796450945
 30
0.0
 11
188.9025303082932
 21
296.612796450945
 31
0.0
  0
LINE
  5
1B3
330
1F
100
AcDbEntity
  8
Sichtbare_Kanten_TC_020513_DIN_
  6
Continuous
 62
     7
100
AcDbLine
 10
206.9025303082932
 20
296.612796450945
 30
0.0
 11
206.9025303082932
 21
298.612796450945
 31
0.0
  0
LINE
  5
1B4
330
1F
100
AcDbEntity
  8
Sichtbare_Kanten_TC_020513_DIN_
  6
Continuous
 62
     7
100
AcDbLine
 10
206.9025303082932
 20
298.612796450945
 30
0.0
 11
188.9025303082932
 21
298.612796450945
 31
0.0
  0
LINE
  5
1B5
330
1F
100
AcDbEntity
  8
Sichtbare_Kanten_TC_020513_DIN_
  6
Continuous
 62
     7
100
AcDbLine
 10
253.6525303082932
 20
255.612796450945
 30
0.0
 11
142.1525303082932
 21
255.612796450945
 31
0.0
  0
LINE
  5
1B6
330
1F
100
AcDbEntity
  8
Sichtbare_Kanten_TC_020513_DIN_
  6
Continuous
 62
     7
100
AcDbLine
 10
141.1525303082932
 20
256.612796450945
 30
0.0
 11
141.1525303082932
 21
290.612796450945
 31
0.0
  0
LINE
  5
1B7
330
1F
100
AcDbEntity
  8
Sichtbare_Kanten_TC_020513_DIN_
  6
Continuous
 62
     7
100
AcDbLine
 10
142.1525303082932
 20
291.612796450945
 30
0.0
 11
253.6525303082932
 21
291.612796450945
 31
0.0
  0
LINE
  5
1B8
330
1F
100
AcDbEntity
  8
Sichtbare_Kanten_TC_020513_DIN_
  6
Continuous
 62
     7
100
AcDbLine
 10
254.6525303082932
 20
290.612796450945
 30
0.0
 11
254.6525303082932
 21
256.612796450945
 31
0.0
  0
LINE
  5
1B9
330
1F
100
AcDbEntity
  8
Sichtbare_Kanten_TC_020513_DIN_
  6
Continuous
 62
     7
100
AcDbLine
 10
142.1525303082932
 20
296.612796450945
 30
0.0
 11
253.6525303082932
 21
296.612796450945
 31
0.0
  0
LINE
  5
1BA
330
1F
100
AcDbEntity
  8
Sichtbare_Kanten_TC_020513_DIN_
  6
Continuous
 62
     7
100
AcDbLine
 10
142.1525303082932
 20
295.612796450945
 30
0.0
 11
253.6525303082932
 21
295.612796450945
 31
0.0
  0
LINE
  5
1BB
330
1F
100
AcDbEntity
  8
Sichtbare_Kanten_TC_020513_DIN_
  6
Continuous
 62
     7
100
AcDbLine
 10
258.6525303082932
 20
290.612796450945
 30
0.0
 11
258.6525303082932
 21
256.612796450945
 31
0.0
  0
LINE
  5
1BC
330
1F
100
AcDbEntity
  8
Sichtbare_Kanten_TC_020513_DIN_
  6
Continuous
 62
     7
100
AcDbLine
 10
136.1525303082932
 20
256.612796450945
 30
0.0
 11
136.1525303082932
 21
290.612796450945
 31
0.0
  0
LINE
  5
1BD
330
1F
100
AcDbEntity
  8
Sichtbare_Kanten_TC_020513_DIN_
  6
Continuous
 62
     7
100
AcDbLine
 10
253.6525303082932
 20
250.612796450945
 30
0.0
 11
142.1525303082932
 21
250.612796450945
 31
0.0
  0
LINE
  5
1BE
330
1F
100
AcDbEntity
  8
Sichtbare_Kanten_TC_020513_DIN_
  6
Continuous
 62
     7
100
AcDbLine
 10
253.6525303082923
 20
251.612796450945
 30
0.0
 11
142.1525303082932
 21
251.612796450945
 31
0.0
  0
LINE
  5
1BF
330
1F
100
AcDbEntity
  8
Sichtbare_Kanten_TC_020513_DIN_
  6
Continuous
 62
     7
100
AcDbLine
 10
137.1525303082932
 20
256.612796450945
 30
0.0
 11
137.1525303082932
 21
290.612796450945
 31
0.0
  0
LINE
  5
1C0
330
1F
100
AcDbEntity
  8
Sichtbare_Kanten_TC_020513_DIN_
  6
Continuous
 62
     7
100
AcDbLine
 10
259.6525303082932
 20
290.612796450945
 30
0.0
 11
259.6525303082932
 21
256.612796450945
 31
0.0
  0
LINE
  5
1C1
330
1F
100
AcDbEntity
  8
Sichtbare_Kanten_TC_020513_DIN_
  6
Continuous
 62
     7
100
AcDbLine
 10
206.9025303082932
 20
245.690419088531
 30
0.0
 11
206.9025303082932
 21
250.612796450945
 31
0.0
  0
LINE
  5
1C2
330
1F
100
AcDbEntity
  8
Sichtbare_Kanten_TC_020513_DIN_
  6
Continuous
 62
     7
100
AcDbLine
 10
188.9025303082932
 20
250.612796450945
 30
0.0
 11
188.9025303082932
 21
245.690419088531
 31
0.0
  0
LINE
  5
1C3
330
1F
100
AcDbEntity
  8
Sichtbare_Kanten_TC_020513_DIN_
  6
Continuous
 62
     7
100
AcDbLine
 10
362.3283476160052
 20
241.385579732232
 30
0.0
 11
362.1218345309281
 21
239.499922213114
 31
0.0
  0
LINE
  5
1C4
330
1F
100
AcDbEntity
  8
Sichtbare_Kanten_TC_020513_DIN_
  6
Continuous
 62
     7
100
AcDbLine
 10
361.8313194468942
 20
241.440013169658
 30
0.0
 11
362.3283476160052
 21
241.385579732232
 31
0.0
  0
LINE
  5
1C5
330
1F
100
AcDbEntity
  8
Sichtbare_Kanten_TC_020513_DIN_
  6
Continuous
 62
     7
100
AcDbLine
 10
361.6859655762313
 20
240.112796450945
 30
0.0
 11
361.8313194468942
 21
241.440013169658
 31
0.0
  0
LINE
  5
1C6
330
1F
100
AcDbEntity
  8
Sichtbare_Kanten_TC_020513_DIN_
  6
Continuous
 62
     7
100
AcDbLine
 10
416.5550965808483
 20
214.896159148354
 30
0.0
 11
416.5550965808473
 21
217.696159148354
 31
0.0
  0
LINE
  5
1C7
330
1F
100
AcDbEntity
  8
Sichtbare_Kanten_TC_020513_DIN_
  6
Continuous
 62
     7
100
AcDbLine
 10
423.5550965808473
 20
217.696159148354
 30
0.0
 11
423.5550965808483
 21
214.896159148354
 31
0.0
  0
LINE
  5
1C8
330
1F
100
AcDbEntity
  8
Sichtbare_Kanten_TC_020513_DIN_
  6
Continuous
 62
     7
100
AcDbLine
 10
423.5550965808483
 20
214.896159148354
 30
0.0
 11
416.5550965808483
 21
214.896159148354
 31
0.0
  0
LINE
  5
1C9
330
1F
100
AcDbEntity
  8
Sichtbare_Kanten_TC_020513_DIN_
  6
Continuous
 62
     7
100
AcDbLine
 10
416.5550965808473
 20
220.112796450945
 30
0.0
 11
416.5550965808473
 21
217.696159148354
 31
0.0
  0
LINE
  5
1CA
330
1F
100
AcDbEntity
  8
Sichtbare_Kanten_TC_020513_DIN_
  6
Continuous
 62
     7
100
AcDbLine
 10
423.9439854697382
 20
216.296159148354
 30
0.0
 11
427.0550965808512
 21
216.296159148354
 31
0.0
  0
LINE
  5
1CB
330
1F
100
AcDbEntity
  8
Sichtbare_Kanten_TC_020513_DIN_
  6
Continuous
 62
     7
100
AcDbLine
 10
423.9439854697382
 20
214.896159148354
 30
0.0
 11
427.0550965808512
 21
214.896159148354
 31
0.0
  0
LINE
  5
1CC
330
1F
100
AcDbEntity
  8
Sichtbare_Kanten_TC_020513_DIN_
  6
Continuous
 62
     7
100
AcDbLine
 10
427.0550965808512
 20
214.896159148354
 30
0.0
 11
427.0550965808512
 21
216.296159148354
 31
0.0
  0
LINE
  5
1CD
330
1F
100
AcDbEntity
  8
Sichtbare_Kanten_TC_020513_DIN_
  6
Continuous
 62
     7
100
AcDbLine
 10
423.9439854697382
 20
216.296159148354
 30
0.0
 11
423.5550965808492
 21
216.296159148354
 31
0.0
  0
LINE
  5
1CE
330
1F
100
AcDbEntity
  8
Sichtbare_Kanten_TC_020513_DIN_
  6
Continuous
 62
     7
100
AcDbLine
 10
423.9439854697382
 20
214.896159148354
 30
0.0
 11
423.5550965808483
 21
214.896159148354
 31
0.0
  0
LINE
  5
1CF
330
1F
100
AcDbEntity
  8
Sichtbare_Kanten_TC_020513_DIN_
  6
Continuous
 62
     7
100
AcDbLine
 10
423.5550965808473
 20
217.696159148354
 30
0.0
 11
423.5550965808473
 21
220.112796450945
 31
0.0
  0
LINE
  5
1D0
330
1F
100
AcDbEntity
  8
Sichtbare_Kanten_TC_020513_DIN_
  6
Continuous
 62
     7
100
AcDbLine
 10
385.7550965808472
 20
227.112796450945
 30
0.0
 11
385.7550965808472
 21
213.612796450945
 31
0.0
  0
LINE
  5
1D1
330
1F
100
AcDbEntity
  8
Sichtbare_Kanten_TC_020513_DIN_
  6
Continuous
 62
     7
100
AcDbLine
 10
415.5550965808473
 20
228.112796450945
 30
0.0
 11
402.7550965808472
 21
228.112796450945
 31
0.0
  0
LINE
  5
1D2
330
1F
100
AcDbEntity
  8
Sichtbare_Kanten_TC_020513_DIN_
  6
Continuous
 62
     7
100
AcDbLine
 10
404.7550965808472
 20
221.112796450945
 30
0.0
 11
415.5550965808473
 21
221.112796450945
 31
0.0
  0
LINE
  5
1D3
330
1F
100
AcDbEntity
  8
Sichtbare_Kanten_TC_020513_DIN_
  6
Continuous
 62
     7
100
AcDbLine
 10
416.5550965808483
 20
214.896159148354
 30
0.0
 11
416.5174416658432
 21
214.896159148354
 31
0.0
  0
LINE
  5
1D4
330
1F
100
AcDbEntity
  8
Sichtbare_Kanten_TC_020513_DIN_
  6
Continuous
 62
     7
100
AcDbLine
 10
416.5550965808512
 20
216.296159148354
 30
0.0
 11
416.5174416658432
 21
216.296159148354
 31
0.0
  0
LINE
  5
1D5
330
1F
100
AcDbEntity
  8
Sichtbare_Kanten_TC_020513_DIN_
  6
Continuous
 62
     7
100
AcDbLine
 10
415.0174416658432
 20
214.796159148354
 30
0.0
 11
415.0174416658432
 21
213.958504233347
 31
0.0
  0
LINE
  5
1D6
330
1F
100
AcDbEntity
  8
Sichtbare_Kanten_TC_020513_DIN_
  6
Continuous
 62
     7
100
AcDbLine
 10
416.4174416658433
 20
213.958504233347
 30
0.0
 11
415.0174416658432
 21
213.958504233347
 31
0.0
  0
LINE
  5
1D7
330
1F
100
AcDbEntity
  8
Sichtbare_Kanten_TC_020513_DIN_
  6
Continuous
 62
     7
100
AcDbLine
 10
416.4174416658433
 20
214.796159148354
 30
0.0
 11
416.4174416658433
 21
213.958504233347
 31
0.0
  0
LINE
  5
1D8
330
1F
100
AcDbEntity
  8
Sichtbare_Kanten_TC_020513_DIN_
  6
Continuous
 62
     7
100
AcDbLine
 10
421.2550965808453
 20
171.112796450945
 30
0.0
 11
364.2550965808453
 21
171.112796450945
 31
0.0
  0
LINE
  5
1D9
330
1F
100
AcDbEntity
  8
Sichtbare_Kanten_TC_020513_DIN_
  6
Continuous
 62
     7
100
AcDbLine
 10
421.2550965808453
 20
171.112796450945
 30
0.0
 11
421.2550965808453
 21
175.112796450945
 31
0.0
  0
LINE
  5
1DA
330
1F
100
AcDbEntity
  8
Sichtbare_Kanten_TC_020513_DIN_
  6
Continuous
 62
     7
100
AcDbLine
 10
421.2550965808453
 20
175.112796450945
 30
0.0
 11
407.8950965808452
 21
175.112796450945
 31
0.0
  0
LINE
  5
1DB
330
1F
100
AcDbEntity
  8
Sichtbare_Kanten_TC_020513_DIN_
  6
Continuous
 62
     7
100
AcDbLine
 10
377.6150965808453
 20
175.112796450945
 30
0.0
 11
364.2550965808453
 21
175.112796450945
 31
0.0
  0
LINE
  5
1DC
330
1F
100
AcDbEntity
  8
Sichtbare_Kanten_TC_020513_DIN_
  6
Continuous
 62
     7
100
AcDbLine
 10
364.2550965808453
 20
171.112796450945
 30
0.0
 11
364.2550965808453
 21
175.112796450945
 31
0.0
  0
LINE
  5
1DD
330
1F
100
AcDbEntity
  8
Sichtbare_Kanten_TC_020513_DIN_
  6
Continuous
 62
     7
100
AcDbLine
 10
407.8950965808452
 20
190.502796450945
 30
0.0
 11
407.8950965808452
 21
175.112796450945
 31
0.0
  0
LINE
  5
1DE
330
1F
100
AcDbEntity
  8
Sichtbare_Kanten_TC_020513_DIN_
  6
Continuous
 62
     7
100
AcDbLine
 10
377.6150965808453
 20
175.112796450945
 30
0.0
 11
377.6150965808453
 21
190.502796450945
 31
0.0
  0
LINE
  5
1DF
330
1F
100
AcDbEntity
  8
Sichtbare_Kanten_TC_020513_DIN_
  6
Continuous
 62
     7
100
AcDbLine
 10
415.0050965808503
 20
175.112796450945
 30
0.0
 11
415.0050965808503
 21
221.112796450945
 31
0.0
  0
LINE
  5
1E0
330
1F
100
AcDbEntity
  8
Sichtbare_Kanten_TC_020513_DIN_
  6
Continuous
 62
     7
100
AcDbLine
 10
415.0050965808503
 20
228.112796450945
 30
0.0
 11
415.0050965808503
 21
230.112796450945
 31
0.0
  0
LINE
  5
1E1
330
1F
100
AcDbEntity
  8
Sichtbare_Kanten_TC_020513_DIN_
  6
Continuous
 62
     7
100
AcDbLine
 10
370.5050965808503
 20
175.112796450945
 30
0.0
 11
370.5050965808503
 21
230.112796450945
 31
0.0
  0
LINE
  5
1E2
330
1F
100
AcDbEntity
  8
Sichtbare_Kanten_TC_020513_DIN_
  6
Continuous
 62
     7
100
AcDbLine
 10
370.5050965808503
 20
230.112796450945
 30
0.0
 11
376.5050965808492
 21
230.112796450945
 31
0.0
  0
LINE
  5
1E3
330
1F
100
AcDbEntity
  8
Sichtbare_Kanten_TC_020513_DIN_
  6
Continuous
 62
     7
100
AcDbLine
 10
409.0050965808482
 20
230.112796450945
 30
0.0
 11
402.1394297728422
 21
230.112796450945
 31
0.0
  0
LINE
  5
1E4
330
1F
100
AcDbEntity
  8
Sichtbare_Kanten_TC_020513_DIN_
  6
Continuous
 62
     7
100
AcDbLine
 10
386.4305412605122
 20
230.112796450945
 30
0.0
 11
376.5050965808492
 21
230.112796450945
 31
0.0
  0
LINE
  5
1E5
330
1F
100
AcDbEntity
  8
Sichtbare_Kanten_TC_020513_DIN_
  6
Continuous
 62
     7
100
AcDbLine
 10
409.0050965808482
 20
230.112796450945
 30
0.0
 11
415.0050965808503
 21
230.112796450945
 31
0.0
  0
LINE
  5
1E6
330
1F
100
AcDbEntity
  8
Sichtbare_Kanten_TC_020513_DIN_
  6
Continuous
 62
     7
100
AcDbLine
 10
376.5050965808492
 20
234.112796450945
 30
0.0
 11
370.7050965808502
 21
234.112796450945
 31
0.0
  0
LINE
  5
1E7
330
1F
100
AcDbEntity
  8
Sichtbare_Kanten_TC_020513_DIN_
  6
Continuous
 62
     7
100
AcDbLine
 10
376.5050965808492
 20
234.112796450945
 30
0.0
 11
395.7550965808492
 21
234.112796450945
 31
0.0
  0
LINE
  5
1E8
330
1F
100
AcDbEntity
  8
Sichtbare_Kanten_TC_020513_DIN_
  6
Continuous
 62
     7
100
AcDbLine
 10
406.8922635430273
 20
234.112796450945
 30
0.0
 11
409.0050965808492
 21
234.112796450945
 31
0.0
  0
LINE
  5
1E9
330
1F
100
AcDbEntity
  8
Sichtbare_Kanten_TC_020513_DIN_
  6
Continuous
 62
     7
100
AcDbLine
 10
414.8050965808502
 20
234.112796450945
 30
0.0
 11
409.0050965808492
 21
234.112796450945
 31
0.0
  0
LINE
  5
1EA
330
1F
100
AcDbEntity
  8
Sichtbare_Kanten_TC_020513_DIN_
  6
Continuous
 62
     7
100
AcDbLine
 10
414.8050965808502
 20
234.112796450945
 30
0.0
 11
414.8050965808502
 21
230.112796450945
 31
0.0
  0
LINE
  5
1EB
330
1F
100
AcDbEntity
  8
Sichtbare_Kanten_TC_020513_DIN_
  6
Continuous
 62
     7
100
AcDbLine
 10
370.7050965808502
 20
234.112796450945
 30
0.0
 11
370.7050965808502
 21
230.112796450945
 31
0.0
  0
LINE
  5
1EC
330
1F
100
AcDbEntity
  8
Sichtbare_Kanten_TC_020513_DIN_
  6
Continuous
 62
     7
100
AcDbLine
 10
368.5050965808632
 20
210.612796450945
 30
0.0
 11
368.5050965808663
 21
218.612796450945
 31
0.0
  0
LINE
  5
1ED
330
1F
100
AcDbEntity
  8
Sichtbare_Kanten_TC_020513_DIN_
  6
Continuous
 62
     7
100
AcDbLine
 10
368.5050965808632
 20
210.612796450945
 30
0.0
 11
368.5050965808622
 21
208.612796450945
 31
0.0
  0
LINE
  5
1EE
330
1F
100
AcDbEntity
  8
Sichtbare_Kanten_TC_020513_DIN_
  6
Continuous
 62
     7
100
AcDbLine
 10
353.0050965808622
 20
209.612796450945
 30
0.0
 11
353.0050965808622
 21
239.112796450945
 31
0.0
  0
LINE
  5
1EF
330
1F
100
AcDbEntity
  8
Sichtbare_Kanten_TC_020513_DIN_
  6
Continuous
 62
     7
100
AcDbLine
 10
354.0050965808622
 20
240.112796450945
 30
0.0
 11
362.0050965808622
 21
240.112796450945
 31
0.0
  0
LINE
  5
1F0
330
1F
100
AcDbEntity
  8
Sichtbare_Kanten_TC_020513_DIN_
  6
Continuous
 62
     7
100
AcDbLine
 10
362.0050965808622
 20
240.112796450945
 30
0.0
 11
364.0050965808622
 21
229.612796450945
 31
0.0
  0
LINE
  5
1F1
330
1F
100
AcDbEntity
  8
Sichtbare_Kanten_TC_020513_DIN_
  6
Continuous
 62
     7
100
AcDbLine
 10
368.5050965808622
 20
208.612796450945
 30
0.0
 11
354.0050965808622
 21
208.612796450945
 31
0.0
  0
LINE
  5
1F2
330
1F
100
AcDbEntity
  8
Sichtbare_Kanten_TC_020513_DIN_
  6
Continuous
 62
     7
100
AcDbLine
 10
364.0050965808622
 20
229.612796450945
 30
0.0
 11
370.5050965808663
 21
229.612796450945
 31
0.0
  0
LINE
  5
1F3
330
1F
100
AcDbEntity
  8
Sichtbare_Kanten_TC_020513_DIN_
  6
Continuous
 62
     7
100
AcDbLine
 10
370.5050965808663
 20
210.612796450945
 30
0.0
 11
368.5050965808632
 21
210.612796450945
 31
0.0
  0
LINE
  5
1F4
330
1F
100
AcDbEntity
  8
Sichtbare_Kanten_TC_020513_DIN_
  6
Continuous
 62
     7
100
AcDbLine
 10
368.5050965808632
 20
210.612796450945
 30
0.0
 11
364.0050965808622
 21
210.612796450945
 31
0.0
  0
LINE
  5
1F5
330
1F
100
AcDbEntity
  8
Sichtbare_Kanten_TC_020513_DIN_
  6
Continuous
 62
     7
100
AcDbLine
 10
364.0050965808622
 20
210.612796450945
 30
0.0
 11
364.0050965808622
 21
229.612796450945
 31
0.0
  0
LINE
  5
1F6
330
1F
100
AcDbEntity
  8
Sichtbare_Kanten_TC_020513_DIN_
  6
Continuous
 62
     7
100
AcDbLine
 10
420.9217338834393
 20
244.47378178594
 30
0.0
 11
420.9217338834393
 21
234.47378178594
 31
0.0
  0
LINE
  5
1F7
330
1F
100
AcDbEntity
  8
Sichtbare_Kanten_TC_020513_DIN_
  6
Continuous
 62
     7
100
AcDbLine
 10
420.9217338834393
 20
234.47378178594
 30
0.0
 11
418.1217338834382
 21
234.47378178594
 31
0.0
  0
LINE
  5
1F8
330
1F
100
AcDbEntity
  8
Sichtbare_Kanten_TC_020513_DIN_
  6
Continuous
 62
     7
100
AcDbLine
 10
419.6142325310242
 20
244.47378178594
 30
0.0
 11
420.9217338834393
 21
244.47378178594
 31
0.0
  0
LINE
  5
1F9
330
1F
100
AcDbEntity
  8
Sichtbare_Kanten_TC_020513_DIN_
  6
Continuous
 62
     7
100
AcDbLine
 10
420.9217338834422
 20
234.2884865472159
 30
0.0
 11
420.9217338834393
 21
234.47378178594
 31
0.0
  0
LINE
  5
1FA
330
1F
100
AcDbEntity
  8
Sichtbare_Kanten_TC_020513_DIN_
  6
Continuous
 62
     7
100
AcDbLine
 10
420.9217338834422
 20
232.913604757443
 30
0.0
 11
420.9217338834422
 21
234.2884865472159
 31
0.0
  0
LINE
  5
1FB
330
1F
100
AcDbEntity
  8
Sichtbare_Kanten_TC_020513_DIN_
  6
Continuous
 62
     7
100
AcDbLine
 10
391.1550965808482
 20
217.112796450945
 30
0.0
 11
391.1550965808482
 21
216.975141535938
 31
0.0
  0
LINE
  5
1FC
330
1F
100
AcDbEntity
  8
Sichtbare_Kanten_TC_020513_DIN_
  6
Continuous
 62
     7
100
AcDbLine
 10
391.1912372424822
 20
217.112796450945
 30
0.0
 11
391.1550965808482
 21
217.112796450945
 31
0.0
  0
LINE
  5
1FD
330
1F
100
AcDbEntity
  8
Sichtbare_Kanten_TC_020513_DIN_
  6
Continuous
 62
     7
100
AcDbLine
 10
402.1432423425673
 20
230.156374322319
 30
0.0
 11
402.0161419872422
 21
228.703610613248
 31
0.0
  0
LINE
  5
1FE
330
1F
100
AcDbEntity
  8
Sichtbare_Kanten_TC_020513_DIN_
  6
Continuous
 62
     7
100
AcDbLine
 10
412.4449054086553
 20
238.504946214038
 30
0.0
 11
402.3311485194212
 21
230.504946214038
 31
0.0
  0
LINE
  5
1FF
330
1F
100
AcDbEntity
  8
Sichtbare_Kanten_TC_020513_DIN_
  6
Continuous
 62
     7
100
AcDbLine
 10
415.9707970546623
 20
234.853399441555
 30
0.0
 11
413.1472463439412
 21
238.4229876231379
 31
0.0
  0
LINE
  5
200
330
1F
100
AcDbEntity
  8
Sichtbare_Kanten_TC_020513_DIN_
  6
Continuous
 62
     7
100
AcDbLine
 10
418.1217338834382
 20
234.47378178594
 30
0.0
 11
416.7550965808482
 21
234.47378178594
 31
0.0
  0
LINE
  5
201
330
1F
100
AcDbEntity
  8
Sichtbare_Kanten_TC_020513_DIN_
  6
Continuous
 62
     7
100
AcDbLine
 10
414.7805421072773
 20
246.9562577197349
 30
0.0
 11
418.1217338834382
 21
244.909038035136
 31
0.0
  0
LINE
  5
202
330
1F
100
AcDbEntity
  8
Sichtbare_Kanten_TC_020513_DIN_
  6
Continuous
 62
     7
100
AcDbLine
 10
388.4948149000203
 20
252.112796450945
 30
0.0
 11
396.4948149000203
 21
252.112796450945
 31
0.0
  0
LINE
  5
203
330
1F
100
AcDbEntity
  8
Sichtbare_Kanten_TC_020513_DIN_
  6
Continuous
 62
     7
100
AcDbLine
 10
398.0420985365173
 20
238.786006717959
 30
0.0
 11
396.9764535280243
 21
241.6716888540719
 31
0.0
  0
LINE
  5
204
330
1F
100
AcDbEntity
  8
Sichtbare_Kanten_TC_020513_DIN_
  6
Continuous
 62
     7
100
AcDbLine
 10
395.7550965808482
 20
235.112796450945
 30
0.0
 11
397.9839745171843
 21
238.327930981643
 31
0.0
  0
LINE
  5
205
330
1F
100
AcDbEntity
  8
Sichtbare_Kanten_TC_020513_DIN_
  6
Continuous
 62
     7
100
AcDbLine
 10
395.7550965808482
 20
233.437351771282
 30
0.0
 11
395.7550965808482
 21
235.112796450945
 31
0.0
  0
LINE
  5
206
330
1F
100
AcDbEntity
  8
Sichtbare_Kanten_TC_020513_DIN_
  6
Continuous
 62
     7
100
AcDbLine
 10
388.2550965808482
 20
216.975141535938
 30
0.0
 11
388.2550965808482
 21
217.014184269811
 31
0.0
  0
LINE
  5
207
330
1F
100
AcDbEntity
  8
Sichtbare_Kanten_TC_020513_DIN_
  6
Continuous
 62
     7
100
AcDbLine
 10
419.5217338834422
 20
234.2884865472159
 30
0.0
 11
419.5217338834422
 21
232.913604757443
 31
0.0
  0
LINE
  5
208
330
1F
100
AcDbEntity
  8
Sichtbare_Kanten_TC_020513_DIN_
  6
Continuous
 62
     7
100
AcDbLine
 10
419.5217338834422
 20
234.47378178594
 30
0.0
 11
419.5217338834422
 21
234.2884865472159
 31
0.0
  0
LINE
  5
209
330
1F
100
AcDbEntity
  8
Sichtbare_Kanten_TC_020513_DIN_
  6
Continuous
 62
     7
100
AcDbLine
 10
427.2560092762393
 20
245.690419088531
 30
0.0
 11
428.7383711860342
 21
245.690419088531
 31
0.0
  0
LINE
  5
20A
330
1F
100
AcDbEntity
  8
Sichtbare_Kanten_TC_020513_DIN_
  6
Continuous
 62
     7
100
AcDbLine
 10
428.7383711860352
 20
244.2904190885309
 30
0.0
 11
427.2560092762393
 21
244.2904190885309
 31
0.0
  0
LINE
  5
20B
330
1F
100
AcDbEntity
  8
Sichtbare_Kanten_TC_020513_DIN_
  6
Continuous
 62
     7
100
AcDbLine
 10
428.7383711860352
 20
244.2904190885309
 30
0.0
 11
428.7383711860342
 21
245.690419088531
 31
0.0
  0
LINE
  5
20C
330
1F
100
AcDbEntity
  8
Sichtbare_Kanten_TC_020513_DIN_
  6
Continuous
 62
     7
100
AcDbLine
 10
422.3217338834432
 20
244.2904190885309
 30
0.0
 11
427.2560092762393
 21
244.2904190885309
 31
0.0
  0
LINE
  5
20D
330
1F
100
AcDbEntity
  8
Sichtbare_Kanten_TC_020513_DIN_
  6
Continuous
 62
     7
100
AcDbLine
 10
427.2560092762393
 20
245.690419088531
 30
0.0
 11
422.3217338834432
 21
245.690419088531
 31
0.0
  0
LINE
  5
20E
330
1F
100
AcDbEntity
  8
Sichtbare_Kanten_TC_020513_DIN_
  6
Continuous
 62
     7
100
AcDbLine
 10
391.1550965808473
 20
216.8751415359379
 30
0.0
 11
391.1550965808473
 21
215.475141535938
 31
0.0
  0
LINE
  5
20F
330
1F
100
AcDbEntity
  8
Sichtbare_Kanten_TC_020513_DIN_
  6
Continuous
 62
     7
100
AcDbLine
 10
391.1550965808473
 20
215.475141535938
 30
0.0
 11
390.6550965808473
 21
215.475141535938
 31
0.0
  0
LINE
  5
210
330
1F
100
AcDbEntity
  8
Sichtbare_Kanten_TC_020513_DIN_
  6
Continuous
 62
     7
100
AcDbLine
 10
390.6550965808473
 20
216.8751415359379
 30
0.0
 11
391.1550965808473
 21
216.8751415359379
 31
0.0
  0
LINE
  5
211
330
1F
100
AcDbEntity
  8
Sichtbare_Kanten_TC_020513_DIN_
  6
Continuous
 62
     7
100
AcDbLine
 10
388.7550965808472
 20
215.475141535938
 30
0.0
 11
390.6550965808473
 21
215.475141535938
 31
0.0
  0
LINE
  5
212
330
1F
100
AcDbEntity
  8
Sichtbare_Kanten_TC_020513_DIN_
  6
Continuous
 62
     7
100
AcDbLine
 10
390.6550965808473
 20
216.8751415359379
 30
0.0
 11
388.7550965808472
 21
216.8751415359379
 31
0.0
  0
LINE
  5
213
330
1F
100
AcDbEntity
  8
Sichtbare_Kanten_TC_020513_DIN_
  6
Continuous
 62
     7
100
AcDbLine
 10
388.7550965808472
 20
215.475141535938
 30
0.0
 11
388.2550965808472
 21
215.475141535938
 31
0.0
  0
LINE
  5
214
330
1F
100
AcDbEntity
  8
Sichtbare_Kanten_TC_020513_DIN_
  6
Continuous
 62
     7
100
AcDbLine
 10
388.2550965808472
 20
216.8751415359379
 30
0.0
 11
388.7550965808472
 21
216.8751415359379
 31
0.0
  0
LINE
  5
215
330
1F
100
AcDbEntity
  8
Sichtbare_Kanten_TC_020513_DIN_
  6
Continuous
 62
     7
100
AcDbLine
 10
388.2550965808472
 20
216.8751415359379
 30
0.0
 11
388.2550965808472
 21
215.475141535938
 31
0.0
  0
LINE
  5
216
330
1F
100
AcDbEntity
  8
Sichtbare_Kanten_TC_020513_DIN_
  6
Continuous
 62
     7
100
AcDbLine
 10
422.9791409539763
 20
224.878426312266
 30
0.0
 11
422.3526677403883
 21
226.221902454319
 31
0.0
  0
LINE
  5
217
330
1F
100
AcDbEntity
  8
Sichtbare_Kanten_TC_020513_DIN_
  6
Continuous
 62
     7
100
AcDbLine
 10
424.2479718558283
 20
225.470091878703
 30
0.0
 11
422.9791409539763
 21
224.878426312266
 31
0.0
  0
LINE
  5
218
330
1F
100
AcDbEntity
  8
Sichtbare_Kanten_TC_020513_DIN_
  6
Continuous
 62
     7
100
AcDbLine
 10
423.6214986422392
 20
226.813568020756
 30
0.0
 11
424.2479718558283
 21
225.470091878703
 31
0.0
  0
LINE
  5
219
330
1F
100
AcDbEntity
  8
Sichtbare_Kanten_TC_020513_DIN_
  6
Continuous
 62
     7
100
AcDbLine
 10
419.7840720797402
 20
231.730273624569
 30
0.0
 11
422.3526677403883
 21
226.221902454319
 31
0.0
  0
LINE
  5
21A
330
1F
100
AcDbEntity
  8
Sichtbare_Kanten_TC_020513_DIN_
  6
Continuous
 62
     7
100
AcDbLine
 10
423.6214986422392
 20
226.813568020756
 30
0.0
 11
421.0529029815913
 21
232.321939191006
 31
0.0
  0
LINE
  5
21B
330
1F
100
AcDbEntity
  8
Sichtbare_Kanten_TC_020513_DIN_
  6
Continuous
 62
     7
100
AcDbLine
 10
420.4946138928323
 20
232.061604713453
 30
0.0
 11
419.7840720797402
 21
231.730273624569
 31
0.0
  0
LINE
  5
21C
330
1F
100
AcDbEntity
  8
Sichtbare_Kanten_TC_020513_DIN_
  6
Continuous
 62
     7
100
AcDbLine
 10
421.0529029815913
 20
232.321939191006
 30
0.0
 11
420.4946138928323
 21
232.061604713453
 31
0.0
  0
LINE
  5
21D
330
1F
100
AcDbEntity
  8
Sichtbare_Kanten_TC_020513_DIN_
  6
Continuous
 62
     7
100
AcDbLine
 10
420.3057300305082
 20
232.913604757443
 30
0.0
 11
420.9217338834422
 21
232.913604757443
 31
0.0
  0
LINE
  5
21E
330
1F
100
AcDbEntity
  8
Sichtbare_Kanten_TC_020513_DIN_
  6
Continuous
 62
     7
100
AcDbLine
 10
419.5217338834422
 20
232.913604757443
 30
0.0
 11
420.3057300305082
 21
232.913604757443
 31
0.0
  0
LINE
  5
21F
330
1F
100
AcDbEntity
  8
Sichtbare_Kanten_TC_020513_DIN_
  6
Continuous
 62
     7
100
AcDbLine
 10
388.2550965808482
 20
216.975141535938
 30
0.0
 11
388.2550965808472
 21
216.8751415359379
 31
0.0
  0
LINE
  5
220
330
1F
100
AcDbEntity
  8
Sichtbare_Kanten_TC_020513_DIN_
  6
Continuous
 62
     7
100
AcDbLine
 10
391.1550965808473
 20
216.8751415359379
 30
0.0
 11
391.1550965808482
 21
216.975141535938
 31
0.0
  0
LINE
  5
221
330
1F
100
AcDbEntity
  8
Sichtbare_Kanten_TC_020513_DIN_
  6
Continuous
 62
     7
100
AcDbLine
 10
422.3217338834432
 20
244.906420218812
 30
0.0
 11
422.3217338834432
 21
244.2904190885309
 31
0.0
  0
LINE
  5
222
330
1F
100
AcDbEntity
  8
Sichtbare_Kanten_TC_020513_DIN_
  6
Continuous
 62
     7
100
AcDbLine
 10
422.3217338834432
 20
245.690419088531
 30
0.0
 11
422.3217338834432
 21
244.906420218812
 31
0.0
  0
LINE
  5
223
330
1F
100
AcDbEntity
  8
Sichtbare_Kanten_TC_020513_DIN_
  6
Continuous
 62
     7
100
AcDbLine
 10
345.5050965808492
 20
273.612796450945
 30
0.0
 11
345.5050965808492
 21
256.612796450945
 31
0.0
  0
LINE
  5
224
330
1F
100
AcDbEntity
  8
Sichtbare_Kanten_TC_020513_DIN_
  6
Continuous
 62
     7
100
AcDbLine
 10
345.5050965808492
 20
290.612796450945
 30
0.0
 11
345.5050965808503
 21
292.612796450945
 31
0.0
  0
LINE
  5
225
330
1F
100
AcDbEntity
  8
Sichtbare_Kanten_TC_020513_DIN_
  6
Continuous
 62
     7
100
AcDbLine
 10
345.5050965808492
 20
290.612796450945
 30
0.0
 11
345.5050965808492
 21
273.612796450945
 31
0.0
  0
LINE
  5
226
330
1F
100
AcDbEntity
  8
Sichtbare_Kanten_TC_020513_DIN_
  6
Continuous
 62
     7
100
AcDbLine
 10
345.5050965808503
 20
254.612796450945
 30
0.0
 11
345.5050965808492
 21
256.612796450945
 31
0.0
  0
LINE
  5
227
330
1F
100
AcDbEntity
  8
Sichtbare_Kanten_TC_020513_DIN_
  6
Continuous
 62
     7
100
AcDbLine
 10
357.0050965808642
 20
298.612796450945
 30
0.0
 11
357.0050965808642
 21
296.612796450945
 31
0.0
  0
LINE
  5
228
330
1F
100
AcDbEntity
  8
Sichtbare_Kanten_TC_020513_DIN_
  6
Continuous
 62
     7
100
AcDbLine
 10
357.0050965808642
 20
298.612796450945
 30
0.0
 11
354.0050965808642
 21
298.612796450945
 31
0.0
  0
LINE
  5
229
330
1F
100
AcDbEntity
  8
Sichtbare_Kanten_TC_020513_DIN_
  6
Continuous
 62
     7
100
AcDbLine
 10
354.0050965808642
 20
298.612796450945
 30
0.0
 11
354.0050965808642
 21
293.612796450945
 31
0.0
  0
LINE
  5
22A
330
1F
100
AcDbEntity
  8
Sichtbare_Kanten_TC_020513_DIN_
  6
Continuous
 62
     7
100
AcDbLine
 10
355.0050965808503
 20
253.612796450945
 30
0.0
 11
346.5050965808503
 21
253.612796450945
 31
0.0
  0
LINE
  5
22B
330
1F
100
AcDbEntity
  8
Sichtbare_Kanten_TC_020513_DIN_
  6
Continuous
 62
     7
100
AcDbLine
 10
355.0050965808503
 20
293.612796450945
 30
0.0
 11
346.5050965808503
 21
293.612796450945
 31
0.0
  0
LINE
  5
22C
330
1F
100
AcDbEntity
  8
Sichtbare_Kanten_TC_020513_DIN_
  6
Continuous
 62
     7
100
AcDbLine
 10
359.0050965808503
 20
296.612796450945
 30
0.0
 11
355.0050965808503
 21
296.612796450945
 31
0.0
  0
LINE
  5
22D
330
1F
100
AcDbEntity
  8
Sichtbare_Kanten_TC_020513_DIN_
  6
Continuous
 62
     7
100
AcDbLine
 10
355.0050965808503
 20
250.612796450945
 30
0.0
 11
355.0050965808482
 21
256.612796450945
 31
0.0
  0
LINE
  5
22E
330
1F
100
AcDbEntity
  8
Sichtbare_Kanten_TC_020513_DIN_
  6
Continuous
 62
     7
100
AcDbLine
 10
355.0050965808482
 20
290.612796450945
 30
0.0
 11
355.0050965808482
 21
256.612796450945
 31
0.0
  0
LINE
  5
22F
330
1F
100
AcDbEntity
  8
Sichtbare_Kanten_TC_020513_DIN_
  6
Continuous
 62
     7
100
AcDbLine
 10
355.0050965808482
 20
290.612796450945
 30
0.0
 11
355.0050965808503
 21
296.612796450945
 31
0.0
  0
LINE
  5
230
330
1F
100
AcDbEntity
  8
Sichtbare_Kanten_TC_020513_DIN_
  6
Continuous
 62
     7
100
AcDbLine
 10
359.0050965808503
 20
296.612796450945
 30
0.0
 11
359.0050965808482
 21
290.612796450945
 31
0.0
  0
LINE
  5
231
330
1F
100
AcDbEntity
  8
Sichtbare_Kanten_TC_020513_DIN_
  6
Continuous
 62
     7
100
AcDbLine
 10
359.0050965808482
 20
256.612796450945
 30
0.0
 11
359.0050965808482
 21
290.612796450945
 31
0.0
  0
LINE
  5
232
330
1F
100
AcDbEntity
  8
Sichtbare_Kanten_TC_020513_DIN_
  6
Continuous
 62
     7
100
AcDbLine
 10
359.0050965808503
 20
250.612796450945
 30
0.0
 11
355.0050965808503
 21
250.612796450945
 31
0.0
  0
LINE
  5
233
330
1F
100
AcDbEntity
  8
Sichtbare_Kanten_TC_020513_DIN_
  6
Continuous
 62
     7
100
AcDbLine
 10
359.0050965808482
 20
256.612796450945
 30
0.0
 11
359.0050965808503
 21
250.612796450945
 31
0.0
  0
LINE
  5
234
330
1F
100
AcDbEntity
  8
Sichtbare_Kanten_TC_020513_DIN_
  6
Continuous
 62
     7
100
AcDbLine
 10
356.5050965808642
 20
250.612796450945
 30
0.0
 11
356.5050965808642
 21
241.403906706006
 31
0.0
  0
LINE
  5
235
330
1F
100
AcDbEntity
  8
Sichtbare_Kanten_TC_020513_DIN_
  6
Continuous
 62
     7
100
AcDbLine
 10
345.9646908985693
 20
253.771391852346
 30
0.0
 11
351.0360519309902
 21
233.86591091765
 31
0.0
  0
LINE
  5
236
330
1F
100
AcDbEntity
  8
Sichtbare_Kanten_TC_020513_DIN_
  6
Continuous
 62
     7
100
AcDbLine
 10
360.5660312525672
 20
241.9127964509449
 30
0.0
 11
356.5050965808642
 21
242.411416531465
 31
0.0
  0
LINE
  5
237
330
1F
100
AcDbEntity
  8
Sichtbare_Kanten_TC_020513_DIN_
  6
Continuous
 62
     7
100
AcDbLine
 10
361.0050965808642
 20
240.112796450945
 30
0.0
 11
361.0050965808642
 21
241.416523375124
 31
0.0
  0
LINE
  5
238
330
1F
100
AcDbEntity
  8
Sichtbare_Kanten_TC_020513_DIN_
  6
Continuous
 62
     7
100
AcDbLine
 10
352.0050965808642
 20
233.112796450945
 30
0.0
 11
353.0050965808642
 21
233.112796450945
 31
0.0
  0
LINE
  5
239
330
1F
100
AcDbEntity
  8
Mittelpunktmarkierung_TC_020513_DIN_
  6
CHAIN
 62
     7
100
AcDbLine
 10
359.5050965808472
 20
273.612796450945
 30
0.0
 11
340.5050965808472
 21
273.612796450945
 31
0.0
  0
LINE
  5
23A
330
1F
100
AcDbEntity
  8
Mittelpunktmarkierung_TC_020513_DIN_
  6
CHAIN
 62
     7
100
AcDbLine
 10
350.0050965808472
 20
283.112796450945
 30
0.0
 11
350.0050965808472
 21
264.112796450945
 31
0.0
  0
LINE
  5
23B
330
1F
100
AcDbEntity
  8
Mittelpunktmarkierung_TC_020513_DIN_
  6
CHAIN
 62
     7
100
AcDbLine
 10
357.0050965808642
 20
237.112796450945
 30
0.0
 11
350.0050965808642
 21
237.112796450945
 31
0.0
  0
LINE
  5
23C
330
1F
100
AcDbEntity
  8
Mittelpunktmarkierung_TC_020513_DIN_
  6
CHAIN
 62
     7
100
AcDbLine
 10
357.0050965808642
 20
244.112796450945
 30
0.0
 11
357.0050965808642
 21
230.112796450945
 31
0.0
  0
LINE
  5
23D
330
1F
100
AcDbEntity
  8
Mittelpunktmarkierung_TC_020513_DIN_
  6
CHAIN
 62
     7
100
AcDbLine
 10
402.4550965808472
 20
227.112796450945
 30
0.0
 11
383.0550965808473
 21
227.112796450945
 31
0.0
  0
LINE
  5
23E
330
1F
100
AcDbEntity
  8
Mittelpunktmarkierung_TC_020513_DIN_
  6
CHAIN
 62
     7
100
AcDbLine
 10
392.7550965808472
 20
236.812796450945
 30
0.0
 11
392.7550965808472
 21
217.4127964509449
 31
0.0
  0
LINE
  5
23F
330
1F
100
AcDbEntity
  8
Mittelpunktmarkierung_TC_020513_DIN_
  6
CHAIN
 62
     7
100
AcDbLine
 10
396.5050965808472
 20
216.112796450945
 30
0.0
 11
383.0050965808472
 21
216.112796450945
 31
0.0
  0
LINE
  5
240
330
1F
100
AcDbEntity
  8
Mittelpunktmarkierung_TC_020513_DIN_
  6
CHAIN
 62
     7
100
AcDbLine
 10
389.7550965808472
 20
222.862796450945
 30
0.0
 11
389.7550965808472
 21
209.362796450945
 31
0.0
  0
LINE
  5
241
330
1F
100
AcDbEntity
  8
Mittelpunktmarkierung_TC_020513_DIN_
  6
CHAIN
 62
     7
100
AcDbLine
 10
412.3070965808842
 20
190.502796450945
 30
0.0
 11
373.2030965808842
 21
190.502796450945
 31
0.0
  0
LINE
  5
242
330
1F
100
AcDbEntity
  8
Mittelpunktmarkierung_TC_020513_DIN_
  6
CHAIN
 62
     7
100
AcDbLine
 10
392.7550965808842
 20
210.054796450945
 30
0.0
 11
392.7550965808842
 21
170.950796450945
 31
0.0
  0
LINE
  5
243
330
1F
100
AcDbEntity
  8
Mittellinie_TC_020513_DIN_
  6
CHAIN
 62
     7
100
AcDbLine
 10
269.6525303082932
 20
273.612796450945
 30
0.0
 11
251.6525303082932
 21
273.612796450945
 31
0.0
  0
LINE
  5
244
330
1F
100
AcDbEntity
  8
Mittellinie_TC_020513_DIN_
  6
CHAIN
 62
     7
100
AcDbLine
 10
144.1525303082932
 20
273.612796450945
 30
0.0
 11
126.1525303082932
 21
273.612796450945
 31
0.0
  0
LINE
  5
245
330
1F
100
AcDbEntity
  8
Mittellinie_TC_020513_DIN_
  6
CHAIN
 62
     7
100
AcDbLine
 10
120.9025303082932
 20
190.502796450945
 30
0.0
 11
143.9025303082932
 21
190.502796450945
 31
0.0
  0
LINE
  5
246
330
1F
100
AcDbEntity
  8
Mittellinie_TC_020513_DIN_
  6
CHAIN
 62
     7
100
AcDbLine
 10
251.9025303082932
 20
190.502796450945
 30
0.0
 11
274.9025303082932
 21
190.502796450945
 31
0.0
  0
LINE
  5
247
330
1F
100
AcDbEntity
  8
Mittellinie_TC_020513_DIN_
  6
CHAIN
 62
     7
100
AcDbLine
 10
129.3025303082923
 20
227.112796450945
 30
0.0
 11
142.5625303082933
 21
227.112796450945
 31
0.0
  0
LINE
  5
248
330
1F
100
AcDbEntity
  8
Mittellinie_TC_020513_DIN_
  6
CHAIN
 62
     7
100
AcDbLine
 10
131.9025303082932
 20
166.112796450945
 30
0.0
 11
131.9025303082932
 21
180.112796450945
 31
0.0
  0
LINE
  5
249
330
1F
100
AcDbEntity
  8
Mittellinie_TC_020513_DIN_
  6
CHAIN
 62
     7
100
AcDbLine
 10
263.9025303082932
 20
166.112796450945
 30
0.0
 11
263.9025303082932
 21
180.112796450945
 31
0.0
  0
LINE
  5
24A
330
1F
100
AcDbEntity
  8
Mittellinie_TC_020513_DIN_
  6
CHAIN
 62
     7
100
AcDbLine
 10
253.2425303082922
 20
227.112796450945
 30
0.0
 11
266.5025303082932
 21
227.112796450945
 31
0.0
  0
LINE
  5
24B
330
1F
100
AcDbEntity
  8
Mittellinie_TC_020513_DIN_
  6
CHAIN
 62
     7
100
AcDbLine
 10
197.9025303082932
 20
166.575704260486
 30
0.0
 11
197.9025303082932
 21
301.010575384271
 31
0.0
  0
LINE
  5
24C
330
1F
100
AcDbEntity
  8
Mittellinie_TC_020513_DIN_
  6
CHAIN
 62
     7
100
AcDbLine
 10
370.2550965808472
 20
166.112796450945
 30
0.0
 11
370.2550965808472
 21
180.112796450945
 31
0.0
  0
LINE
  5
24D
330
1F
100
AcDbEntity
  8
Mittellinie_TC_020513_DIN_
  6
CHAIN
 62
     7
100
AcDbLine
 10
415.2550965808472
 20
166.112796450945
 30
0.0
 11
415.2550965808472
 21
180.112796450945
 31
0.0
  0
ARC
  5
506
330
1F
100
AcDbEntity
  8
Sichtbare_Kanten_TC_020513_DIN_
  6
Continuous
 62
     7
100
AcDbCircle
 10
187.6191676108832
 20
214.458504233347
 30
0.0
 40
0.5
100
AcDbArc
 50
270.0
 51
0.0
  0
ARC
  5
507
330
1F
100
AcDbEntity
  8
Sichtbare_Kanten_TC_020513_DIN_
  6
Continuous
 62
     7
100
AcDbCircle
 10
135.7025303082933
 20
217.696159148354
 30
0.0
 40
1.400000000001
100
AcDbArc
 50
180.0
 51
270.0
  0
ARC
  5
508
330
1F
100
AcDbEntity
  8
Sichtbare_Kanten_TC_020513_DIN_
  6
Continuous
 62
     7
100
AcDbCircle
 10
135.7025303082933
 20
217.696159148354
 30
0.0
 40
2.800000000000097
100
AcDbArc
 50
180.0
 51
270.0
  0
ARC
  5
509
330
1F
100
AcDbEntity
  8
Sichtbare_Kanten_TC_020513_DIN_
  6
Continuous
 62
     7
100
AcDbCircle
 10
208.1858930057023
 20
214.458504233347
 30
0.0
 40
0.5
100
AcDbArc
 50
180.0
 51
270.0
  0
ARC
  5
50A
330
1F
100
AcDbEntity
  8
Sichtbare_Kanten_TC_020513_DIN_
  6
Continuous
 62
     7
100
AcDbCircle
 10
260.1025303082932
 20
217.696159148354
 30
0.0
 40
2.800000000000011
100
AcDbArc
 50
270.0
 51
0.0
  0
ARC
  5
50B
330
1F
100
AcDbEntity
  8
Sichtbare_Kanten_TC_020513_DIN_
  6
Continuous
 62
     7
100
AcDbCircle
 10
260.1025303082932
 20
217.696159148354
 30
0.0
 40
1.400000000000006
100
AcDbArc
 50
270.0
 51
0.0
  0
ARC
  5
50C
330
1F
100
AcDbEntity
  8
Sichtbare_Kanten_TC_020513_DIN_
  6
Continuous
 62
     7
100
AcDbCircle
 10
264.2025303082932
 20
223.112796450945
 30
0.0
 40
0.7000000000010118
100
AcDbArc
 50
180.0
 51
0.0
  0
ARC
  5
50D
330
1F
100
AcDbEntity
  8
Sichtbare_Kanten_TC_020513_DIN_
  6
Continuous
 62
     7
100
AcDbCircle
 10
264.2025303082932
 20
231.112796450945
 30
0.0
 40
0.6999999999999886
100
AcDbArc
 50
0.0
 51
180.0
  0
ARC
  5
50E
330
1F
100
AcDbEntity
  8
Sichtbare_Kanten_TC_020513_DIN_
  6
Continuous
 62
     7
100
AcDbCircle
 10
131.6025303082932
 20
231.112796450945
 30
0.0
 40
0.6999999999990791
100
AcDbArc
 50
0.0
 51
180.0
  0
ARC
  5
50F
330
1F
100
AcDbEntity
  8
Sichtbare_Kanten_TC_020513_DIN_
  6
Continuous
 62
     7
100
AcDbCircle
 10
131.6025303082932
 20
223.112796450945
 30
0.0
 40
0.700000000000017
100
AcDbArc
 50
180.0
 51
0.0
  0
ARC
  5
510
330
1F
100
AcDbEntity
  8
Sichtbare_Kanten_TC_020513_DIN_
  6
Continuous
 62
     7
100
AcDbCircle
 10
200.9025303082932
 20
237.612796450945
 30
0.0
 40
0.25
100
AcDbArc
 50
270.0
 51
90.0
  0
ARC
  5
511
330
1F
100
AcDbEntity
  8
Sichtbare_Kanten_TC_020513_DIN_
  6
Continuous
 62
     7
100
AcDbCircle
 10
200.9025303082932
 20
236.459430932857
 30
0.0
 40
0.2500000000005432
100
AcDbArc
 50
299.9816393686772
 51
119.981639368983
  0
ARC
  5
512
330
1F
100
AcDbEntity
  8
Sichtbare_Kanten_TC_020513_DIN_
  6
Continuous
 62
     7
100
AcDbCircle
 10
199.9025303082932
 20
235.882507855934
 30
0.0
 40
0.25
100
AcDbArc
 50
180.0
 51
299.9816393686675
  0
ARC
  5
513
330
1F
100
AcDbEntity
  8
Sichtbare_Kanten_TC_020513_DIN_
  6
Continuous
 62
     7
100
AcDbCircle
 10
200.9025303082932
 20
238.766161969033
 30
0.0
 40
0.2500000000001645
100
AcDbArc
 50
240.018360631017
 51
60.01836063120882
  0
ARC
  5
514
330
1F
100
AcDbEntity
  8
Sichtbare_Kanten_TC_020513_DIN_
  6
Continuous
 62
     7
100
AcDbCircle
 10
199.9025303082932
 20
239.343085045956
 30
0.0
 40
0.2499999999996816
100
AcDbArc
 50
60.01836063120882
 51
180.0
  0
ARC
  5
515
330
1F
100
AcDbEntity
  8
Sichtbare_Kanten_TC_020513_DIN_
  6
Continuous
 62
     7
100
AcDbCircle
 10
194.8525303082932
 20
236.488277086703
 30
0.0
 40
0.25
100
AcDbArc
 50
180.0
 51
0.0
  0
ARC
  5
516
330
1F
100
AcDbEntity
  8
Sichtbare_Kanten_TC_020513_DIN_
  6
Continuous
 62
     7
100
AcDbCircle
 10
194.8525303082932
 20
238.737315815187
 30
0.0
 40
0.25
100
AcDbArc
 50
0.0
 51
180.0
  0
ARC
  5
517
330
1F
100
AcDbEntity
  8
Sichtbare_Kanten_TC_020513_DIN_
  6
Continuous
 62
     7
100
AcDbCircle
 10
197.9025303082932
 20
234.728661702087
 30
0.0
 40
0.2499999999996267
100
AcDbArc
 50
240.0183614847746
 51
60.01836063132275
  0
ARC
  5
518
330
1F
100
AcDbEntity
  8
Sichtbare_Kanten_TC_020513_DIN_
  6
Continuous
 62
     7
100
AcDbCircle
 10
195.8525303082932
 20
235.91135400978
 30
0.0
 40
0.25
100
AcDbArc
 50
180.0
 51
240.0183606310413
  0
ARC
  5
519
330
1F
100
AcDbEntity
  8
Sichtbare_Kanten_TC_020513_DIN_
  6
Continuous
 62
     7
100
AcDbCircle
 10
195.8525303082932
 20
239.31423889211
 30
0.0
 40
0.25
100
AcDbArc
 50
0.0
 51
180.0
  0
ARC
  5
51A
330
1F
100
AcDbEntity
  8
Sichtbare_Kanten_TC_020513_DIN_
  6
Continuous
 62
     7
100
AcDbCircle
 10
198.9025303082932
 20
239.920008122879
 30
0.0
 40
0.25
100
AcDbArc
 50
0.0
 51
144.0904238230141
  0
ARC
  5
51B
330
1F
100
AcDbEntity
  8
Sichtbare_Kanten_TC_020513_DIN_
  6
Continuous
 62
     7
100
AcDbCircle
 10
198.9025303082932
 20
235.3055847790109
 30
0.0
 40
0.25
100
AcDbArc
 50
180.0
 51
0.0
  0
ARC
  5
51C
330
1F
100
AcDbEntity
  8
Sichtbare_Kanten_TC_020513_DIN_
  6
Continuous
 62
     7
100
AcDbCircle
 10
196.9025303082932
 20
239.920008122879
 30
0.0
 40
0.2500000000003043
100
AcDbArc
 50
35.90957617710819
 51
180.0
  0
ARC
  5
51D
330
1F
100
AcDbEntity
  8
Sichtbare_Kanten_TC_020513_DIN_
  6
Continuous
 62
     7
100
AcDbCircle
 10
196.9025303082932
 20
236.488277086703
 30
0.0
 40
0.25
100
AcDbArc
 50
180.0
 51
0.0
  0
ARC
  5
51E
330
1F
100
AcDbEntity
  8
Sichtbare_Kanten_TC_020513_DIN_
  6
Continuous
 62
     7
100
AcDbCircle
 10
248.6358930057022
 20
234.22378178594
 30
0.0
 40
0.25
100
AcDbArc
 50
90.0
 51
164.9999999999144
  0
ARC
  5
51F
330
1F
100
AcDbEntity
  8
Sichtbare_Kanten_TC_020513_DIN_
  6
Continuous
 62
     7
100
AcDbCircle
 10
256.1358930057022
 20
243.47378178594
 30
0.0
 40
1.0
100
AcDbArc
 50
90.0
 51
140.0000000000246
  0
ARC
  5
520
330
1F
100
AcDbEntity
  8
Sichtbare_Kanten_TC_020513_DIN_
  6
Continuous
 62
     7
100
AcDbCircle
 10
253.5250784270372
 20
243.47378178594
 30
0.0
 40
1.0
100
AcDbArc
 50
270.0
 51
319.9999999999761
  0
ARC
  5
521
330
1F
100
AcDbEntity
  8
Sichtbare_Kanten_TC_020513_DIN_
  6
Continuous
 62
     7
100
AcDbCircle
 10
248.6358930057022
 20
243.97378178594
 30
0.0
 40
1.500000000000016
100
AcDbArc
 50
226.2398789709679
 51
270.0
  0
ARC
  5
522
330
1F
100
AcDbEntity
  8
Sichtbare_Kanten_TC_020513_DIN_
  6
Continuous
 62
     7
100
AcDbCircle
 10
147.1691676108832
 20
243.97378178594
 30
0.0
 40
1.5
100
AcDbArc
 50
270.0
 51
313.7601210290321
  0
ARC
  5
523
330
1F
100
AcDbEntity
  8
Sichtbare_Kanten_TC_020513_DIN_
  6
Continuous
 62
     7
100
AcDbCircle
 10
142.2799821895483
 20
243.47378178594
 30
0.0
 40
1.000000000000445
100
AcDbArc
 50
220.0000000000208
 51
270.0
  0
ARC
  5
524
330
1F
100
AcDbEntity
  8
Sichtbare_Kanten_TC_020513_DIN_
  6
Continuous
 62
     7
100
AcDbCircle
 10
139.6691676108832
 20
243.47378178594
 30
0.0
 40
0.9999999999997549
100
AcDbArc
 50
39.99999999997116
 51
90.0
  0
ARC
  5
525
330
1F
100
AcDbEntity
  8
Sichtbare_Kanten_TC_020513_DIN_
  6
Continuous
 62
     7
100
AcDbCircle
 10
147.1691676108832
 20
234.22378178594
 30
0.0
 40
0.2499999999998341
100
AcDbArc
 50
15.00000000007884
 51
90.0
  0
ARC
  5
526
330
1F
100
AcDbEntity
  8
Sichtbare_Kanten_TC_020513_DIN_
  6
Continuous
 62
     7
100
AcDbCircle
 10
134.8025303082923
 20
216.975141535938
 30
0.0
 40
0.1000000000010175
100
AcDbArc
 50
270.0
 51
0.0
  0
ARC
  5
527
330
1F
100
AcDbEntity
  8
Sichtbare_Kanten_TC_020513_DIN_
  6
Continuous
 62
     7
100
AcDbCircle
 10
134.8025303082923
 20
216.975141535938
 30
0.0
 40
1.500000000001002
100
AcDbArc
 50
333.0858507981298
 51
0.0
  0
ARC
  5
528
330
1F
100
AcDbEntity
  8
Sichtbare_Kanten_TC_020513_DIN_
  6
Continuous
 62
     7
100
AcDbCircle
 10
261.0025303082922
 20
216.975141535938
 30
0.0
 40
0.0999999999989996
100
AcDbArc
 50
180.0
 51
270.0
  0
ARC
  5
529
330
1F
100
AcDbEntity
  8
Sichtbare_Kanten_TC_020513_DIN_
  6
Continuous
 62
     7
100
AcDbCircle
 10
261.0025303082922
 20
216.975141535938
 30
0.0
 40
1.5
100
AcDbArc
 50
180.0
 51
206.9141492018864
  0
ARC
  5
52A
330
1F
100
AcDbEntity
  8
Sichtbare_Kanten_TC_020513_DIN_
  6
Continuous
 62
     7
100
AcDbCircle
 10
253.6525303082932
 20
256.612796450945
 30
0.0
 40
0.9999999999999716
100
AcDbArc
 50
270.0
 51
0.0
  0
ARC
  5
52B
330
1F
100
AcDbEntity
  8
Sichtbare_Kanten_TC_020513_DIN_
  6
Continuous
 62
     7
100
AcDbCircle
 10
142.1525303082932
 20
256.612796450945
 30
0.0
 40
1.0
100
AcDbArc
 50
180.0
 51
270.0
  0
ARC
  5
52C
330
1F
100
AcDbEntity
  8
Sichtbare_Kanten_TC_020513_DIN_
  6
Continuous
 62
     7
100
AcDbCircle
 10
142.1525303082932
 20
290.612796450945
 30
0.0
 40
1.0
100
AcDbArc
 50
90.0
 51
180.0
  0
ARC
  5
52D
330
1F
100
AcDbEntity
  8
Sichtbare_Kanten_TC_020513_DIN_
  6
Continuous
 62
     7
100
AcDbCircle
 10
253.6525303082932
 20
290.612796450945
 30
0.0
 40
1.0
100
AcDbArc
 50
0.0
 51
90.0
  0
ARC
  5
52E
330
1F
100
AcDbEntity
  8
Sichtbare_Kanten_TC_020513_DIN_
  6
Continuous
 62
     7
100
AcDbCircle
 10
253.6525303082932
 20
290.612796450945
 30
0.0
 40
5.0
100
AcDbArc
 50
0.0
 51
90.0
  0
ARC
  5
52F
330
1F
100
AcDbEntity
  8
Sichtbare_Kanten_TC_020513_DIN_
  6
Continuous
 62
     7
100
AcDbCircle
 10
253.6525303082932
 20
256.612796450945
 30
0.0
 40
4.999999999999972
100
AcDbArc
 50
269.9999999999899
 51
0.0
  0
ARC
  5
530
330
1F
100
AcDbEntity
  8
Sichtbare_Kanten_TC_020513_DIN_
  6
Continuous
 62
     7
100
AcDbCircle
 10
142.1525303082932
 20
290.612796450945
 30
0.0
 40
6.0
100
AcDbArc
 50
90.0
 51
180.0
  0
ARC
  5
531
330
1F
100
AcDbEntity
  8
Sichtbare_Kanten_TC_020513_DIN_
  6
Continuous
 62
     7
100
AcDbCircle
 10
142.1525303082932
 20
256.612796450945
 30
0.0
 40
6.0
100
AcDbArc
 50
180.0
 51
270.0
  0
ARC
  5
532
330
1F
100
AcDbEntity
  8
Sichtbare_Kanten_TC_020513_DIN_
  6
Continuous
 62
     7
100
AcDbCircle
 10
142.1525303082932
 20
290.612796450945
 30
0.0
 40
5.0
100
AcDbArc
 50
90.0
 51
180.0
  0
ARC
  5
533
330
1F
100
AcDbEntity
  8
Sichtbare_Kanten_TC_020513_DIN_
  6
Continuous
 62
     7
100
AcDbCircle
 10
142.1525303082932
 20
256.612796450945
 30
0.0
 40
5.0
100
AcDbArc
 50
180.0
 51
270.0
  0
ARC
  5
534
330
1F
100
AcDbEntity
  8
Sichtbare_Kanten_TC_020513_DIN_
  6
Continuous
 62
     7
100
AcDbCircle
 10
253.6525303082932
 20
256.612796450945
 30
0.0
 40
5.999999999999972
100
AcDbArc
 50
270.0
 51
0.0
  0
ARC
  5
535
330
1F
100
AcDbEntity
  8
Sichtbare_Kanten_TC_020513_DIN_
  6
Continuous
 62
     7
100
AcDbCircle
 10
253.6525303082932
 20
290.612796450945
 30
0.0
 40
6.0
100
AcDbArc
 50
0.0
 51
90.0
  0
ARC
  5
536
330
1F
100
AcDbEntity
  8
Sichtbare_Kanten_TC_020513_DIN_
  6
Continuous
 62
     7
100
AcDbCircle
 10
392.7550965808472
 20
227.112796450945
 30
0.0
 40
7.000000000000083
100
AcDbArc
 50
64.00779443620533
 51
180.0
  0
ARC
  5
537
330
1F
100
AcDbEntity
  8
Sichtbare_Kanten_TC_020513_DIN_
  6
Continuous
 62
     7
100
AcDbCircle
 10
387.0578612439163
 20
215.4276986971549
 30
0.0
 40
19.99999999999995
100
AcDbArc
 50
40.02901817645245
 51
64.00779443621003
  0
ARC
  5
538
330
1F
100
AcDbEntity
  8
Sichtbare_Kanten_TC_020513_DIN_
  6
Continuous
 62
     7
100
AcDbCircle
 10
402.7550965808472
 20
228.612796450945
 30
0.0
 40
0.4999999999998571
100
AcDbArc
 50
220.0290181765673
 51
270.0
  0
ARC
  5
539
330
1F
100
AcDbEntity
  8
Sichtbare_Kanten_TC_020513_DIN_
  6
Continuous
 62
     7
100
AcDbCircle
 10
415.5550965808473
 20
220.112796450945
 30
0.0
 40
8.0
100
AcDbArc
 50
0.0
 51
90.0
  0
ARC
  5
53A
330
1F
100
AcDbEntity
  8
Sichtbare_Kanten_TC_020513_DIN_
  6
Continuous
 62
     7
100
AcDbCircle
 10
415.5550965808473
 20
220.112796450945
 30
0.0
 40
1.0
100
AcDbArc
 50
0.0
 51
90.0
  0
ARC
  5
53B
330
1F
100
AcDbEntity
  8
Sichtbare_Kanten_TC_020513_DIN_
  6
Continuous
 62
     7
100
AcDbCircle
 10
404.7550965808472
 20
220.612796450945
 30
0.0
 40
0.5
100
AcDbArc
 50
90.0
 51
154.11794840355
  0
ARC
  5
53C
330
1F
100
AcDbEntity
  8
Sichtbare_Kanten_TC_020513_DIN_
  6
Continuous
 62
     7
100
AcDbCircle
 10
390.8098307955632
 20
227.378856026339
 30
0.0
 40
14.99999999999954
100
AcDbArc
 50
251.6923269007137
 51
334.1179484035671
  0
ARC
  5
53D
330
1F
100
AcDbEntity
  8
Sichtbare_Kanten_TC_020513_DIN_
  6
Continuous
 62
     7
100
AcDbCircle
 10
386.2550965808472
 20
213.612796450945
 30
0.0
 40
0.5
100
AcDbArc
 50
180.0
 51
251.6923269007608
  0
ARC
  5
53E
330
1F
100
AcDbEntity
  8
Sichtbare_Kanten_TC_020513_DIN_
  6
Continuous
 62
     7
100
AcDbCircle
 10
416.5174416658432
 20
214.796159148354
 30
0.0
 40
1.5
100
AcDbArc
 50
90.0
 51
180.0
  0
ARC
  5
53F
330
1F
100
AcDbEntity
  8
Sichtbare_Kanten_TC_020513_DIN_
  6
Continuous
 62
     7
100
AcDbCircle
 10
416.5174416658432
 20
214.796159148354
 30
0.0
 40
0.0999999999999943
100
AcDbArc
 50
90.0
 51
180.0
  0
ARC
  5
540
330
1F
100
AcDbEntity
  8
Sichtbare_Kanten_TC_020513_DIN_
  6
Continuous
 62
     7
100
AcDbCircle
 10
392.7550965808453
 20
190.502796450945
 30
0.0
 40
15.13999999999987
100
AcDbArc
 50
0.0
 51
180.0
  0
ARC
  5
541
330
1F
100
AcDbEntity
  8
Sichtbare_Kanten_TC_020513_DIN_
  6
Continuous
 62
     7
100
AcDbCircle
 10
354.0050965808622
 20
209.612796450945
 30
0.0
 40
1.0
100
AcDbArc
 50
180.0
 51
270.0
  0
ARC
  5
542
330
1F
100
AcDbEntity
  8
Sichtbare_Kanten_TC_020513_DIN_
  6
Continuous
 62
     7
100
AcDbCircle
 10
354.0050965808622
 20
239.112796450945
 30
0.0
 40
1.0
100
AcDbArc
 50
90.0
 51
180.0
  0
ARC
  5
543
330
1F
100
AcDbEntity
  8
Sichtbare_Kanten_TC_020513_DIN_
  6
Continuous
 62
     7
100
AcDbCircle
 10
402.6413396916132
 20
230.112796450945
 30
0.0
 40
0.4999999999997284
100
AcDbArc
 50
128.3440606645682
 51
174.9999999999811
  0
ARC
  5
544
330
1F
100
AcDbEntity
  8
Sichtbare_Kanten_TC_020513_DIN_
  6
Continuous
 62
     7
100
AcDbCircle
 10
412.7550965808482
 20
238.112796450945
 30
0.0
 40
0.5000000000003149
100
AcDbArc
 50
38.34406066464788
 51
128.3440606646499
  0
ARC
  5
545
330
1F
100
AcDbEntity
  8
Sichtbare_Kanten_TC_020513_DIN_
  6
Continuous
 62
     7
100
AcDbCircle
 10
416.7550965808482
 20
235.47378178594
 30
0.0
 40
1.000000000000029
100
AcDbArc
 50
218.3440606646149
 51
270.0
  0
ARC
  5
546
330
1F
100
AcDbEntity
  8
Sichtbare_Kanten_TC_020513_DIN_
  6
Continuous
 62
     7
100
AcDbCircle
 10
396.4948149000203
 20
217.112796450945
 30
0.0
 40
34.99999999999975
100
AcDbArc
 50
58.50330715785381
 51
90.0
  0
ARC
  5
547
330
1F
100
AcDbEntity
  8
Sichtbare_Kanten_TC_020513_DIN_
  6
Continuous
 62
     7
100
AcDbCircle
 10
388.4948149000203
 20
247.812796450945
 30
0.0
 40
4.300000000000011
100
AcDbArc
 50
90.0
 51
298.9550243718529
  0
ARC
  5
548
330
1F
100
AcDbEntity
  8
Sichtbare_Kanten_TC_020513_DIN_
  6
Continuous
 62
     7
100
AcDbCircle
 10
392.7550965808482
 20
240.112796450945
 30
0.0
 40
4.499999999999854
100
AcDbArc
 50
20.26853458426612
 51
118.9550243718638
  0
ARC
  5
549
330
1F
100
AcDbEntity
  8
Sichtbare_Kanten_TC_020513_DIN_
  6
Continuous
 62
     7
100
AcDbCircle
 10
397.5730588757202
 20
238.612796450945
 30
0.0
 40
0.500000000000513
100
AcDbArc
 50
325.2685345842219
 51
20.26853458426443
  0
ARC
  5
54A
330
1F
100
AcDbEntity
  8
Sichtbare_Kanten_TC_020513_DIN_
  6
Continuous
 62
     7
100
AcDbCircle
 10
346.5050965808503
 20
292.612796450945
 30
0.0
 40
1.0
100
AcDbArc
 50
90.0
 51
180.0
  0
ARC
  5
54B
330
1F
100
AcDbEntity
  8
Sichtbare_Kanten_TC_020513_DIN_
  6
Continuous
 62
     7
100
AcDbCircle
 10
346.5050965808503
 20
254.612796450945
 30
0.0
 40
1.0
100
AcDbArc
 50
180.0
 51
270.0
  0
ARC
  5
54C
330
1F
100
AcDbEntity
  8
Sichtbare_Kanten_TC_020513_DIN_
  6
Continuous
 62
     7
100
AcDbCircle
 10
360.5050965808642
 20
241.416523375124
 30
0.0
 40
0.5
100
AcDbArc
 50
0.0
 51
82.99999999995232
  0
ARC
  5
54D
330
1F
100
AcDbEntity
  8
Sichtbare_Kanten_TC_020513_DIN_
  6
Continuous
 62
     7
100
AcDbCircle
 10
352.0050965808642
 20
234.112796450945
 30
0.0
 40
0.9999999999998694
100
AcDbArc
 50
194.2932903099152
 51
270.0
  0
ARC
  5
54E
330
1F
100
AcDbEntity
  8
Stich_1-Linien_TC_020513_DIN_
  6
DASHED_SPACE
 62
     7
100
AcDbCircle
 10
389.7550965808472
 20
216.112796450945
 30
0.0
 40
48.93394997172101
100
AcDbArc
 50
0.0
 51
57.54712709618181
  0
CIRCLE
  5
54F
330
1F
100
AcDbEntity
  8
Sichtbare_Kanten_TC_020513_DIN_
  6
Continuous
 62
     7
100
AcDbCircle
 10
389.7550965808472
 20
216.112796450945
 30
0.0
 40
1.75
  0
CIRCLE
  5
550
330
1F
100
AcDbEntity
  8
Sichtbare_Kanten_TC_020513_DIN_
  6
Continuous
 62
     7
100
AcDbCircle
 10
392.7550965808453
 20
190.502796450945
 30
0.0
 40
13.38999999999987
  0
CIRCLE
  5
551
330
1F
100
AcDbEntity
  8
Sichtbare_Kanten_TC_020513_DIN_
  6
Continuous
 62
     7
100
AcDbCircle
 10
392.7550965808453
 20
190.502796450945
 30
0.0
 40
10.39000000000391
  0
CIRCLE
  5
552
330
1F
100
AcDbEntity
  8
Sichtbare_Kanten_TC_020513_DIN_
  6
Continuous
 62
     7
100
AcDbCircle
 10
392.7550965808472
 20
227.112796450945
 30
0.0
 40
4.700000000000045
  0
CIRCLE
  5
553
330
1F
100
AcDbEntity
  8
Sichtbare_Kanten_TC_020513_DIN_
  6
Continuous
 62
     7
100
AcDbCircle
 10
350.0050965808472
 20
273.612796450945
 30
0.0
 40
4.5
  0
SPLINE
  5
554
330
1F
100
AcDbEntity
  8
Sichtbare_Kanten_TC_020513_DIN_
  6
Continuous
 62
     7
100
AcDbSpline
210
0.0
220
0.0
230
1.0
 70
     8
 71
     3
 72
    19
 73
    15
 74
    13
 42
0.000000001
 43
0.0000000001
 44
0.00000001
 40
0.0
 40
0.0
 40
0.0
 40
0.0
 40
0.347460667414172
 40
0.694917535029149
 40
0.8665696488941774
 40
1.038221191655156
 40
1.20748486138947
 40
1.376745209809082
 40
1.543251855852962
 40
1.709751057159719
 40
1.873443934533284
 40
2.037147336109287
 40
2.278188137687365
 40
2.518986528946059
 40
2.518986528946059
 40
2.518986528946059
 40
2.518986528946059
 10
244.2299153584382
 20
225.470091878703
 30
0.0
 10
244.3458471283507
 20
225.4753488410947
 30
0.0
 10
244.5777093991994
 20
225.485862723063
 30
0.0
 10
244.8597812053698
 20
225.5569360407755
 30
0.0
 10
245.0755653072039
 20
225.6375030165945
 30
0.0
 10
245.2303020555173
 20
225.7104968298392
 30
0.0
 10
245.3777788443756
 20
225.7955429998854
 30
0.0
 10
245.5162069506957
 20
225.8917027267512
 30
0.0
 10
245.6452172385277
 20
225.9987344211197
 30
0.0
 10
245.7631385286161
 20
226.1152417326944
 30
0.0
 10
245.8698022541582
 20
226.2409781978301
 30
0.0
 10
245.9786774244878
 20
226.3962143562791
 30
0.0
 10
246.0838111407588
 20
226.5852368115297
 30
0.0
 10
246.1357904422688
 20
226.7374831473786
 30
0.0
 10
246.1617670110162
 20
226.813568020756
 30
0.0
 11
244.2299153584382
 21
225.470091878703
 31
0.0
 11
244.5762946777279
 21
225.4974831649417
 31
0.0
 11
244.9139556450891
 21
225.5794059734978
 31
0.0
 11
245.0746642642371
 21
225.639715077899
 31
0.0
 11
245.2299153584376
 21
225.7129363183333
 31
0.0
 11
245.376512666397
 21
225.7975496705782
 31
0.0
 11
245.5154905778109
 21
225.894163364746
 31
0.0
 11
245.6436001490606
 21
226.0005231370782
 31
0.0
 11
245.7620042446762
 21
226.1175806206369
 31
0.0
 11
245.8678005500112
 21
226.2424905890096
 31
0.0
 11
245.9619661660071
 21
226.3763996657395
 31
0.0
 11
246.0772205837341
 21
226.5881001340549
 31
0.0
 11
246.1617670110162
 21
226.813568020756
 31
0.0
  0
SPLINE
  5
555
330
1F
100
AcDbEntity
  8
Sichtbare_Kanten_TC_020513_DIN_
  6
Continuous
 62
     7
100
AcDbSpline
210
0.0
220
0.0
230
1.0
 70
     8
 71
     3
 72
    19
 73
    15
 74
    13
 42
0.000000001
 43
0.0000000001
 44
0.00000001
 40
0.0
 40
0.0
 40
0.0
 40
0.0
 40
0.3474606674141742
 40
0.6949175350291512
 40
0.8665696488941796
 40
1.038221191655146
 40
1.207484861389446
 40
1.376745209809074
 40
1.543251855852954
 40
1.709751057159691
 40
1.873443934533235
 40
2.037147336109237
 40
2.27818813768739
 40
2.518986528946057
 40
2.518986528946057
 40
2.518986528946057
 40
2.518986528946057
 10
244.2299153584382
 20
224.878426312266
 30
0.0
 10
244.3458471283508
 20
224.8836832746577
 30
0.0
 10
244.5777093991994
 20
224.8941971566259
 30
0.0
 10
244.8597812053699
 20
224.9652704743386
 30
0.0
 10
245.0755653072038
 20
225.0458374501574
 30
0.0
 10
245.2303020555174
 20
225.1188312634023
 30
0.0
 10
245.3777788443755
 20
225.2038774334482
 30
0.0
 10
245.5162069506958
 20
225.3000371603143
 30
0.0
 10
245.6452172385277
 20
225.4070688546828
 30
0.0
 10
245.7631385286161
 20
225.5235761662573
 30
0.0
 10
245.8698022541582
 20
225.649312631393
 30
0.0
 10
245.9786774244878
 20
225.804548789842
 30
0.0
 10
246.0838111407589
 20
225.9935712450928
 30
0.0
 10
246.1357904422687
 20
226.1458175809415
 30
0.0
 10
246.1617670110162
 20
226.221902454319
 30
0.0
 11
244.2299153584382
 21
224.878426312266
 31
0.0
 11
244.5762946777279
 21
224.9058175985048
 31
0.0
 11
244.9139556450891
 21
224.9877404070609
 31
0.0
 11
245.0746642642371
 21
225.0480495114621
 31
0.0
 11
245.2299153584376
 21
225.1212707518963
 31
0.0
 11
245.376512666397
 21
225.2058841041412
 31
0.0
 11
245.5154905778109
 21
225.302497798309
 31
0.0
 11
245.6436001490606
 21
225.4088575706412
 31
0.0
 11
245.7620042446762
 21
225.5259150541998
 31
0.0
 11
245.8678005500112
 21
225.6508250225725
 31
0.0
 11
245.9619661660071
 21
225.7847340993025
 31
0.0
 11
246.0772205837341
 21
225.9964345676179
 31
0.0
 11
246.1617670110162
 21
226.221902454319
 31
0.0
  0
SPLINE
  5
556
330
1F
100
AcDbEntity
  8
Sichtbare_Kanten_TC_020513_DIN_
  6
Continuous
 62
     7
100
AcDbSpline
210
0.0
220
0.0
230
1.0
 70
     8
 71
     3
 72
    19
 73
    15
 74
    13
 42
0.000000001
 43
0.0000000001
 44
0.00000001
 40
0.0
 40
0.0
 40
0.0
 40
0.0
 40
0.322186220536566
 40
0.644386261834003
 40
0.8094705328393095
 40
0.9745562229276776
 40
1.142463280811577
 40
1.310374909566749
 40
1.480895931773495
 40
1.651417687593761
 40
1.824033462668422
 40
1.996661195040575
 40
2.257865073019073
 40
2.518894987888695
 40
2.518894987888695
 40
2.518894987888695
 40
2.518894987888695
 10
149.6432936055693
 20
226.221902454319
 30
0.0
 10
149.6795072684471
 20
226.1204681336806
 30
0.0
 10
149.7519361611704
 20
225.9175951466456
 30
0.0
 10
149.9013278076034
 20
225.6899047031371
 30
0.0
 10
150.0416814844401
 20
225.5237284645781
 30
0.0
 10
150.1600286554956
 20
225.4069116297644
 30
0.0
 10
150.2886774252881
 20
225.300177587115
 30
0.0
 10
150.4274574376158
 20
225.2037646001846
 30
0.0
 10
150.5745915905754
 20
225.1189054059304
 30
0.0
 10
150.7296420043695
 20
225.045843603505
 30
0.0
 10
150.8907989424217
 20
224.9853417025348
 30
0.0
 10
151.085372517711
 20
224.9300859119272
 30
0.0
 10
151.3139127920991
 20
224.8873424198654
 30
0.0
 10
151.4880871091118
 20
224.8813976831558
 30
0.0
 10
151.5751452581472
 20
224.878426312266
 30
0.0
 11
149.6432936055693
 21
226.221902454319
 31
0.0
 11
149.7635580167656
 21
225.9230037536052
 31
0.0
 11
149.9368411695694
 21
225.6513683048875
 31
0.0
 11
150.0435353823215
 21
225.5253954435134
 31
0.0
 11
150.1609316957743
 21
225.4093291222275
 31
0.0
 11
150.2901245758816
 21
225.3020818375126
 31
0.0
 11
150.4279923854452
 21
225.2062341333268
 31
0.0
 11
150.5756796370138
 21
225.1209939141323
 31
0.0
 11
150.7299087346658
 21
225.0482542766522
 31
0.0
 11
150.8915184258831
 21
224.9876035246447
 31
0.0
 11
151.0575071679424
 21
224.9401896902078
 31
0.0
 11
151.3145732550411
 21
224.8938810168625
 31
0.0
 11
151.5751452581472
 21
224.878426312266
 31
0.0
  0
SPLINE
  5
557
330
1F
100
AcDbEntity
  8
Sichtbare_Kanten_TC_020513_DIN_
  6
Continuous
 62
     7
100
AcDbSpline
210
0.0
220
0.0
230
1.0
 70
     8
 71
     3
 72
    19
 73
    15
 74
    13
 42
0.000000001
 43
0.0000000001
 44
0.00000001
 40
0.0
 40
0.0
 40
0.0
 40
0.0
 40
0.3221862205362233
 40
0.6443862618334926
 40
0.8094705328390158
 40
0.9745562229275636
 40
1.142463280811525
 40
1.310374909566649
 40
1.480895931773392
 40
1.651417687593682
 40
1.824033462668344
 40
1.996661195040488
 40
2.257865073018982
 40
2.518894987888605
 40
2.518894987888605
 40
2.518894987888605
 40
2.518894987888605
 10
149.6432936055693
 20
226.813568020756
 30
0.0
 10
149.6795072684471
 20
226.7121337001178
 30
0.0
 10
149.7519361611704
 20
226.5092607130829
 30
0.0
 10
149.9013278076035
 20
226.2815702695746
 30
0.0
 10
150.0416814844401
 20
226.1153940310155
 30
0.0
 10
150.1600286554954
 20
225.9985771962013
 30
0.0
 10
150.2886774252883
 20
225.8918431535521
 30
0.0
 10
150.4274574376157
 20
225.7954301666214
 30
0.0
 10
150.5745915905755
 20
225.7105709723675
 30
0.0
 10
150.7296420043694
 20
225.6375091699418
 30
0.0
 10
150.8907989424217
 20
225.5770072689718
 30
0.0
 10
151.085372517711
 20
225.5217514783642
 30
0.0
 10
151.3139127920991
 20
225.4790079863024
 30
0.0
 10
151.4880871091117
 20
225.4730632495928
 30
0.0
 10
151.5751452581472
 20
225.470091878703
 30
0.0
 11
149.6432936055693
 21
226.813568020756
 31
0.0
 11
149.7635580167656
 21
226.5146693200426
 31
0.0
 11
149.9368411695694
 21
226.243033871325
 31
0.0
 11
150.0435353823215
 21
226.1170610099506
 31
0.0
 11
150.1609316957743
 21
226.0009946886645
 31
0.0
 11
150.2901245758816
 21
225.8937474039496
 31
0.0
 11
150.4279923854452
 21
225.7978996997638
 31
0.0
 11
150.5756796370138
 21
225.7126594805694
 31
0.0
 11
150.7299087346658
 21
225.6399198430892
 31
0.0
 11
150.8915184258831
 21
225.5792690910817
 31
0.0
 11
151.0575071679424
 21
225.5318552566448
 31
0.0
 11
151.3145732550411
 21
225.4855465832996
 31
0.0
 11
151.5751452581472
 21
225.470091878703
 31
0.0
  0
LWPOLYLINE
  5
558
330
1F
100
AcDbEntity
  8
Sichtbare_Kanten_TC_020513_DIN_
  6
Continuous
 62
     7
100
AcDbPolyline
 90
       25
 70
     0
 43
0.0
 10
188.1191675620543
 20
214.876024867388
 10
188.1193082290162
 20
214.877735520693
 10
188.1198726850022
 20
214.879728700014
 10
188.1210695462693
 20
214.881916190477
 10
188.1229357676972
 20
214.884045268389
 10
188.1252853827932
 20
214.885909701677
 10
188.1280170636643
 20
214.8875285638289
 10
188.1310616689192
 20
214.888935233446
 10
188.1343846278652
 20
214.890163089129
 10
188.1379233556253
 20
214.891224051806
 10
188.1416152673232
 20
214.892134810778
 10
188.1453989701732
 20
214.8929084790669
 10
188.1492345290642
 20
214.893562938067
 10
188.1531541305052
 20
214.894122029635
 10
188.1571279721723
 20
214.894595290514
 10
188.1611226754652
 20
214.894989873262
 10
188.1651018815502
 20
214.8953117383439
 10
188.1690316157802
 20
214.8955692304099
 10
188.1728761153682
 20
214.895768309923
 10
188.1766002135743
 20
214.895917321535
 10
188.1801699357492
 20
214.896023417803
 10
188.1835501151542
 20
214.896093751284
 10
188.1867049890022
 20
214.896135474535
 10
188.1895999865992
 20
214.896154548021
 10
188.1921999412042
 20
214.896159316393
  0
LWPOLYLINE
  5
559
330
1F
100
AcDbEntity
  8
Sichtbare_Kanten_TC_020513_DIN_
  6
Continuous
 62
     7
100
AcDbPolyline
 90
       25
 70
     0
 43
0.0
 10
207.6128606753813
 20
214.896159316393
 10
207.6154689746362
 20
214.896154548021
 10
207.6183526473502
 20
214.896136666628
 10
207.6214806991083
 20
214.896097327562
 10
207.6248191552622
 20
214.8960317624529
 10
207.6283364253502
 20
214.8959304345569
 10
207.6320003228652
 20
214.89578738341
 10
207.6357768731582
 20
214.895596648546
 10
207.6396350818142
 20
214.8953498853169
 10
207.6435421662792
 20
214.895039941164
 10
207.6474647479522
 20
214.894660855623
 10
207.6513712363702
 20
214.894205476137
 10
207.6552288489802
 20
214.893666650148
 10
207.6590053992733
 20
214.893036033007
 10
207.6626675086483
 20
214.89230885634
 10
207.6661835866432
 20
214.891476775499
 10
207.6695357518662
 20
214.890527869554
 10
207.6727591710552
 20
214.889423991533
 10
207.6757936435212
 20
214.8881472600419
 10
207.6785664515952
 20
214.886679793688
 10
207.6810042815672
 20
214.885009671541
 10
207.6830356078613
 20
214.88311543593
 10
207.6845859246713
 20
214.880975629183
 10
207.6855610566603
 20
214.878599788042
 10
207.6858930545312
 20
214.876024867388
  0
LWPOLYLINE
  5
55A
330
1F
100
AcDbEntity
  8
Sichtbare_Kanten_TC_020513_DIN_
  6
Continuous
 62
     7
100
AcDbPolyline
 90
       25
 70
     0
 43
0.0
 10
148.0147491651043
 20
231.730273510309
 10
148.0049215512732
 20
231.7766378773169
 10
147.9950939374432
 20
231.8233589781249
 10
147.9852758603562
 20
231.870425189825
 10
147.9754577832682
 20
231.917824293467
 10
147.9656397061813
 20
231.9655446661429
 10
147.9558216290933
 20
232.013574386927
 10
147.9460083203773
 20
232.061900938841
 10
147.9361902432902
 20
232.110512997004
 10
147.9263721662032
 20
232.159398342463
 10
147.9165493207443
 20
232.208544756266
 10
147.9067264752853
 20
232.257940317484
 10
147.8968988614543
 20
232.307573701235
 10
147.8870712476243
 20
232.3574079526389
 10
147.8772436337932
 20
232.407404924723
 10
147.8674255567063
 20
232.457553292604
 10
147.8576074796182
 20
232.507839943262
 10
147.8477894025313
 20
232.558251763674
 10
147.8379713254432
 20
232.608777428957
 10
147.8281580167272
 20
232.6594038260899
 10
147.8183399396402
 20
232.710117842051
 10
147.8085218625532
 20
232.76090755591
 10
147.7986990170942
 20
232.811760450693
 10
147.7888761716353
 20
232.862663413378
 10
147.7790485578042
 20
232.913604523035
  0
LWPOLYLINE
  5
55B
330
1F
100
AcDbEntity
  8
Sichtbare_Kanten_TC_020513_DIN_
  6
Continuous
 62
     7
100
AcDbPolyline
 90
       25
 70
     0
 43
0.0
 10
147.7790485578042
 20
232.913604523035
 10
147.7888761716353
 20
232.8881342662299
 10
147.7986990170942
 20
232.862682486864
 10
147.8085218625532
 20
232.837256337496
 10
147.8183399396402
 20
232.811861182543
 10
147.8281580167272
 20
232.786504174562
 10
147.8379713254432
 20
232.761191274019
 10
147.8477894025313
 20
232.735928441378
 10
147.8576074796182
 20
232.710722233149
 10
147.8674255567063
 20
232.6855792058429
 10
147.8772436337932
 20
232.6605047238789
 10
147.8870712476243
 20
232.63550653586
 10
147.8968988614543
 20
232.610589410158
 10
147.9067264752853
 20
232.585772420259
 10
147.9165493207443
 20
232.56107463965
 10
147.9263721662032
 20
232.536501432749
 10
147.9361902432902
 20
232.5120587600189
 10
147.9460083203773
 20
232.487752581926
 10
147.9558216290933
 20
232.4635894549809
 10
147.9656397061813
 20
232.4395747436009
 10
147.9754577832682
 20
232.415714408251
 10
147.9852758603562
 20
232.392015005442
 10
147.9950939374432
 20
232.368481899591
 10
148.0049215512732
 20
232.3451210511649
 10
148.0147491651043
 20
232.321939016672
  0
LWPOLYLINE
  5
55C
330
1F
100
AcDbEntity
  8
Sichtbare_Kanten_TC_020513_DIN_
  6
Continuous
 62
     7
100
AcDbPolyline
 90
       25
 70
     0
 43
0.0
 10
134.9445472913252
 20
244.6947766793689
 10
134.9411236005293
 20
244.703705455156
 10
134.9378477292522
 20
244.712633038851
 10
134.9347196774942
 20
244.721560622545
 10
134.9317299085122
 20
244.73048820624
 10
134.9288879590492
 20
244.739414597841
 10
134.9261890607343
 20
244.748342181536
 10
134.9236379819382
 20
244.757268573137
 10
134.9212299542893
 20
244.7661961568319
 10
134.9189697461592
 20
244.7751225484329
 10
134.9168525891762
 20
244.784050132128
 10
134.9148784833412
 20
244.792978907915
 10
134.9130521970252
 20
244.801907683702
 10
134.9113737302282
 20
244.810835267397
 10
134.9098383145793
 20
244.819764043184
 10
134.9084507184492
 20
244.8286916268789
 10
134.9072109418372
 20
244.8376192105729
 10
134.9061142163743
 20
244.846545602175
 10
134.9051605420572
 20
244.855473185869
 10
134.9043594556313
 20
244.864399577471
 10
134.9037014203533
 20
244.873325969072
 10
134.9031864362222
 20
244.882253552767
 10
134.9028240399822
 20
244.891181136461
 10
134.9026046948892
 20
244.900109912249
 10
134.9025284009442
 20
244.909037495943
  0
LWPOLYLINE
  5
55D
330
1F
100
AcDbEntity
  8
Sichtbare_Kanten_TC_020513_DIN_
  6
Continuous
 62
     7
100
AcDbPolyline
 90
       25
 70
     0
 43
0.0
 10
136.3025318341712
 20
244.909037495943
 10
136.3025652127723
 20
244.900109912249
 10
136.3026748853192
 20
244.891181136461
 10
136.3028608518113
 20
244.882253552767
 10
136.3031135755042
 20
244.873325969072
 10
136.3034425931443
 20
244.864399577471
 10
136.3038479047283
 20
244.855473185869
 10
136.3043199735153
 20
244.846545602175
 10
136.3048683362473
 20
244.8376192105729
 10
136.3054929929242
 20
244.8286916268789
 10
136.3061844068033
 20
244.819764043184
 10
136.3069521146282
 20
244.810835267397
 10
136.3077913480262
 20
244.801907683702
 10
136.3087068753703
 20
244.792978907915
 10
136.3096891599163
 20
244.784050132128
 10
136.3107477384073
 20
244.7751225484329
 10
136.3118826108442
 20
244.7661961568319
 10
136.3130842404822
 20
244.757268573137
 10
136.3143621640662
 20
244.748342181536
 10
136.3157068448522
 20
244.739414597841
 10
136.3171325879563
 20
244.73048820624
 10
136.3186250882612
 20
244.721560622545
 10
136.3201891141403
 20
244.712633038851
 10
136.3218294339642
 20
244.703705455156
 10
136.3235365109903
 20
244.6947766793689
  0
LWPOLYLINE
  5
55E
330
1F
100
AcDbEntity
  8
Sichtbare_Kanten_TC_020513_DIN_
  6
Continuous
 62
     7
100
AcDbPolyline
 90
       25
 70
     0
 43
0.0
 10
135.3334699826702
 20
244.473781730028
 10
135.3040538983802
 20
244.474320556017
 10
135.2756296353803
 20
244.475940610262
 10
135.2482162671553
 20
244.478646661135
 10
135.2218137937052
 20
244.482443477007
 10
135.1964412885172
 20
244.487333442064
 10
135.1721035199622
 20
244.493322516771
 10
135.1488100247842
 20
244.500414277407
 10
135.1265703397262
 20
244.508613492342
 10
135.1054035382732
 20
244.517923737856
 10
135.0853191571703
 20
244.528345013948
 10
135.0667320447432
 20
244.539626981112
 10
135.0497804837693
 20
244.551540757509
 10
135.0343834119302
 20
244.563950444552
 10
135.0204645352823
 20
244.576722527834
 10
135.0079380231363
 20
244.589722300859
 10
134.9967228131752
 20
244.602815057131
 10
134.9867378430832
 20
244.615867282244
 10
134.9779068189132
 20
244.628743077608
 10
134.9701439099772
 20
244.64130892882
 10
134.9633680539592
 20
244.653428937288
 10
134.9575029569132
 20
244.664970780703
 10
134.9524675565223
 20
244.675798560472
 10
134.9481712537272
 20
244.685778762194
 10
134.9445472913252
 20
244.6947766793689
  0
LWPOLYLINE
  5
55F
330
1F
100
AcDbEntity
  8
Sichtbare_Kanten_TC_020513_DIN_
  6
Continuous
 62
     7
100
AcDbPolyline
 90
       25
 70
     0
 43
0.0
 10
136.3235365109903
 20
244.6947766793689
 10
136.3253627973062
 20
244.685692931505
 10
136.3275037961463
 20
244.675713921877
 10
136.3299881177412
 20
244.664958859774
 10
136.3328682141762
 20
244.653551722856
 10
136.3361822324263
 20
244.641612912508
 10
136.3399683194622
 20
244.629264022203
 10
136.3442693906292
 20
244.616627837511
 10
136.3491235928992
 20
244.6038247598129
 10
136.3545738416182
 20
244.5909775746779
 10
136.3606582837563
 20
244.5782078755819
 10
136.3674198346603
 20
244.565637255999
 10
136.3749014096723
 20
244.553387309404
 10
136.3831411557662
 20
244.541579629274
 10
136.3921772199143
 20
244.530337001177
 10
136.4019809918863
 20
244.5198525441609
 10
136.4124141889082
 20
244.510375405642
 10
136.4234672742352
 20
244.501936580034
 10
136.4351497846112
 20
244.494556332918
 10
136.4474807935222
 20
244.488256121965
 10
136.4604316907393
 20
244.483065749498
 10
136.4739690976602
 20
244.479015017839
 10
136.4880787091712
 20
244.476112271639
 10
136.5027605252723
 20
244.474365855547
 10
136.5180002408492
 20
244.473781730028
  0
LWPOLYLINE
  5
560
330
1F
100
AcDbEntity
  8
Sichtbare_Kanten_TC_020513_DIN_
  6
Continuous
 62
     7
100
AcDbPolyline
 90
       25
 70
     0
 43
0.0
 10
148.6180578427773
 20
243.836865569445
 10
148.6456857877242
 20
243.9703561318839
 10
148.6732660489543
 20
244.100780631395
 10
148.7008081632122
 20
244.227899457308
 10
148.7283407407273
 20
244.351472998949
 10
148.7558685498702
 20
244.471260453554
 10
148.7834202008712
 20
244.587024594637
 10
148.8110099988443
 20
244.69852342734
 10
148.8386522489052
 20
244.805504227968
 10
148.8662658887372
 20
244.90738525519
 10
148.8938366132243
 20
245.00383510718
 10
148.9213787274822
 20
245.094688083025
 10
148.9489065366253
 20
245.179778481813
 10
148.9764391141403
 20
245.258940602633
 10
149.0039955335122
 20
245.332011128756
 10
149.0315948682293
 20
245.39882435927
 10
149.0592466550332
 20
245.459190751406
 10
149.0868793683512
 20
245.512803937288
 10
149.1145025449263
 20
245.559537555071
 10
149.1421304898722
 20
245.599301005693
 10
149.1697822766762
 20
245.632003690096
 10
149.1974197583662
 20
245.65751447806
 10
149.2250477033123
 20
245.675774957033
 10
149.2526708798872
 20
245.686752940508
 10
149.2803178983193
 20
245.690418626162
  0
LWPOLYLINE
  5
561
330
1F
100
AcDbEntity
  8
Sichtbare_Kanten_TC_020513_DIN_
  6
Continuous
 62
     7
100
AcDbPolyline
 90
       25
 70
     0
 43
0.0
 10
149.2803178983193
 20
244.290418769213
 10
149.2526613431443
 20
244.288584138247
 10
149.2250620084272
 20
244.2831005109269
 10
149.1974960523113
 20
244.2739953053909
 10
149.1699539380533
 20
244.261299516054
 10
149.1424070554242
 20
244.245041753145
 10
149.1148506360512
 20
244.225249434801
 10
149.0872560697062
 20
244.2019535554369
 10
149.0596090512732
 20
244.175182725283
 10
149.0319429593552
 20
244.145023967119
 10
149.0043340878952
 20
244.111645366045
 10
148.9767681317793
 20
244.075133944841
 10
148.9492212491492
 20
244.035569573732
 10
148.9216791348922
 20
243.993035699221
 10
148.8941227155192
 20
243.947614575716
 10
148.8665376859173
 20
243.899387265535
 10
148.8389002042283
 20
243.848437215181
 10
148.8112293439373
 20
243.794907475802
 10
148.7836061673622
 20
243.7391044152699
 10
148.7560211377603
 20
243.681165124269
 10
148.7284599500163
 20
243.621210004183
 10
148.7008987622722
 20
243.5593606484849
 10
148.6733232694132
 20
243.495735074373
 10
148.6457143979532
 20
243.430456067415
 10
148.6180578427773
 20
243.363642836901
  0
LWPOLYLINE
  5
562
330
1F
100
AcDbEntity
  8
Sichtbare_Kanten_TC_020513_DIN_
  6
Continuous
 62
     7
100
AcDbPolyline
 90
       25
 70
     0
 43
0.0
 10
148.2066284375652
 20
242.890418912264
 10
148.2168327527503
 20
242.904175664278
 10
148.2283579068643
 20
242.920040036531
 10
148.2410942273602
 20
242.9379822267019
 10
148.2549272733193
 20
242.957979585024
 10
148.2697521405682
 20
242.980003501268
 10
148.2854591565592
 20
243.004027749392
 10
148.3019386487473
 20
243.03002610335
 10
148.3190857129563
 20
243.0579735291919
 10
148.3367811398963
 20
243.087841416689
 10
148.3549247937663
 20
243.1196059239829
 10
148.3734022336463
 20
243.153238440844
 10
148.3921085553633
 20
243.188712741228
 10
148.4109340863693
 20
243.226003791185
 10
148.4297691541182
 20
243.265084172579
 10
148.4484993176923
 20
243.305928851458
 10
148.4670196729172
 20
243.348509217592
 10
148.4856687741742
 20
243.393817092272
 10
148.5049997525672
 20
243.443633462282
 10
148.5247217374313
 20
243.497973824831
 10
148.5445152478682
 20
243.5568202985249
 10
148.5640655713543
 20
243.620152617785
 10
148.5830484586222
 20
243.687950517031
 10
148.6011491971473
 20
243.760193730684
 10
148.6180578427773
 20
243.836865569445
  0
LWPOLYLINE
  5
563
330
1F
100
AcDbEntity
  8
Sichtbare_Kanten_TC_020513_DIN_
  6
Continuous
 62
     7
100
AcDbPolyline
 90
       25
 70
     0
 43
0.0
 10
148.6180578427773
 20
243.363642836901
 10
148.6122165875892
 20
243.349751378389
 10
148.6052786069382
 20
243.334103967043
 10
148.5971389966472
 20
243.316795970293
 10
148.5876976209153
 20
243.297927523943
 10
148.5768400388222
 20
243.27759637961
 10
148.5644661145673
 20
243.255900288912
 10
148.5504709439742
 20
243.232939387651
 10
148.5347496228682
 20
243.208810235353
 10
148.5171877103312
 20
243.183610583635
 10
148.4976898389322
 20
243.157441760393
 10
148.4761463361242
 20
243.130399133058
 10
148.4529339032632
 20
243.103152657839
 10
148.4293638425332
 20
243.0772651685199
 10
148.4056984143723
 20
243.0528284562549
 10
148.3821283536422
 20
243.029852057787
 10
148.3588539319502
 20
243.0083455098589
 10
148.3360706525313
 20
242.9883207334
 10
148.3139692502482
 20
242.969784880968
 10
148.2927452283362
 20
242.952748681398
 10
148.2725940900313
 20
242.9372228635269
 10
148.2537113385662
 20
242.923216964098
 10
148.2362924771772
 20
242.910741711946
 10
148.2205330090982
 20
242.899805451723
 10
148.2066284375652
 20
242.890418912264
  0
LWPOLYLINE
  5
564
330
1F
100
AcDbEntity
  8
Sichtbare_Kanten_TC_020513_DIN_
  6
Continuous
 62
     7
100
AcDbPolyline
 90
       25
 70
     0
 43
0.0
 10
247.5984321790203
 20
242.890418912264
 10
247.5845276074872
 20
242.899805451723
 10
247.5687681394082
 20
242.910741711946
 10
247.5513492780192
 20
242.923216964098
 10
247.5324665265542
 20
242.9372228635269
 10
247.5123153882493
 20
242.952748681398
 10
247.4910913663372
 20
242.969784880968
 10
247.4689899640542
 20
242.9883207334
 10
247.4462066846353
 20
243.0083455098589
 10
247.4229322629432
 20
243.029852057787
 10
247.3993622022132
 20
243.0528284562549
 10
247.3756967740522
 20
243.0772651685199
 10
247.3521267133223
 20
243.103152657839
 10
247.3289142804612
 20
243.130399133058
 10
247.3073707776532
 20
243.157441760393
 10
247.2878729062542
 20
243.183610583635
 10
247.2703109937172
 20
243.208810235353
 10
247.2545896726113
 20
243.232939387651
 10
247.2405945020182
 20
243.255900288912
 10
247.2282205777632
 20
243.27759637961
 10
247.2173629956702
 20
243.297927523943
 10
247.2079216199383
 20
243.316795970293
 10
247.1997820096473
 20
243.334103967043
 10
247.1928440289962
 20
243.349751378389
 10
247.1870027738082
 20
243.363642836901
  0
LWPOLYLINE
  5
565
330
1F
100
AcDbEntity
  8
Sichtbare_Kanten_TC_020513_DIN_
  6
Continuous
 62
     7
100
AcDbPolyline
 90
       25
 70
     0
 43
0.0
 10
247.1870027738082
 20
243.363642836901
 10
247.1593462186322
 20
243.430450106951
 10
247.1317468839152
 20
243.495713616701
 10
247.1041809277992
 20
243.559312964769
 10
247.0766388135422
 20
243.621128941866
 10
247.0490966992842
 20
243.681042338701
 10
247.0215355115403
 20
243.738933945986
 10
246.9939457135662
 20
243.79468455443
 10
246.9662986951332
 20
243.848173762651
 10
246.9386326032142
 20
243.8991917623
 10
246.9110237317542
 20
243.947469140383
 10
246.8834530072672
 20
243.992921258303
 10
246.8559061246382
 20
244.035469437929
 10
246.8283640103803
 20
244.075033809038
 10
246.8008123593792
 20
244.1115368855919
 10
246.7732225614052
 20
244.144897605272
 10
246.7455898480872
 20
244.1750384820419
 10
246.7179189877973
 20
244.2018510354479
 10
246.6902958112222
 20
244.2251850617849
 10
246.6627107816203
 20
244.245003606173
 10
246.6351448255042
 20
244.261280442568
 10
246.6075836377603
 20
244.273988152834
 10
246.5800081449012
 20
244.283098126741
 10
246.5524040418133
 20
244.288584138247
 10
246.5247427182662
 20
244.290418769213
  0
LWPOLYLINE
  5
566
330
1F
100
AcDbEntity
  8
Sichtbare_Kanten_TC_020513_DIN_
  6
Continuous
 62
     7
100
AcDbPolyline
 90
       25
 70
     0
 43
0.0
 10
247.1870027738082
 20
243.836865569445
 10
247.2039114194382
 20
243.760193730684
 10
247.2220121579633
 20
243.687949324938
 10
247.2409950452312
 20
243.620152617785
 10
247.2605453687172
 20
243.5568202985249
 10
247.2803388791542
 20
243.497973824831
 10
247.3000608640183
 20
243.443633462282
 10
247.3193918424112
 20
243.393817092272
 10
247.3380409436683
 20
243.348509217592
 10
247.3565612988932
 20
243.305928851458
 10
247.3752914624672
 20
243.265084172579
 10
247.3941265302162
 20
243.226003791185
 10
247.4129520612222
 20
243.188712741228
 10
247.4316583829392
 20
243.153238440844
 10
247.4501358228192
 20
243.1196059239829
 10
247.4682794766892
 20
243.087841416689
 10
247.4859749036292
 20
243.0579735291919
 10
247.5031219678382
 20
243.03002610335
 10
247.5196014600263
 20
243.004027749392
 10
247.5353084760172
 20
242.980003501268
 10
247.5501333432662
 20
242.957979585024
 10
247.5639663892252
 20
242.9379822267019
 10
247.5767027097212
 20
242.920040036531
 10
247.5882278638352
 20
242.904175664278
 10
247.5984321790203
 20
242.890418912264
  0
LWPOLYLINE
  5
567
330
1F
100
AcDbEntity
  8
Sichtbare_Kanten_TC_020513_DIN_
  6
Continuous
 62
     7
100
AcDbPolyline
 90
       25
 70
     0
 43
0.0
 10
246.5247427182662
 20
245.690418626162
 10
246.5523754315842
 20
245.686756516786
 10
246.5799509244422
 20
245.675808335634
 10
246.6074978070723
 20
245.657626534792
 10
246.6350256162152
 20
245.632268334719
 10
246.6625581937302
 20
245.599788571688
 10
246.6901098447312
 20
245.560240889879
 10
246.7176948743332
 20
245.513683701845
 10
246.7453371243943
 20
245.4601766122299
 10
246.7729555325972
 20
245.399997378679
 10
246.8005214887122
 20
245.3333808434929
 10
246.8280636029703
 20
245.2604831708389
 10
246.8555914121132
 20
245.181461716982
 10
246.8831239896282
 20
245.096471453997
 10
246.9106851773722
 20
245.0056721223319
 10
246.9382845120892
 20
244.9092186940629
 10
246.9659315305213
 20
244.807311440798
 10
246.9935642438392
 20
244.700439120623
 10
247.0211874204142
 20
244.588879491182
 10
247.0488201337322
 20
244.472853089663
 10
247.0764671521653
 20
244.352589989992
 10
247.1041094022262
 20
244.2285479558429
 10
247.1317325788002
 20
244.101077462526
 10
247.1593605237473
 20
243.970432425829
 10
247.1870027738082
 20
243.836865569445
  0
LWPOLYLINE
  5
568
330
1F
100
AcDbEntity
  8
Sichtbare_Kanten_TC_020513_DIN_
  6
Continuous
 62
     7
100
AcDbPolyline
 90
       25
 70
     0
 43
0.0
 10
247.7903114514812
 20
232.321939016672
 10
247.8001390653122
 20
232.3451210511649
 10
247.8099666791422
 20
232.368481899591
 10
247.8197847562302
 20
232.392015005442
 10
247.8296028333173
 20
232.415714408251
 10
247.8394209104042
 20
232.4395747436009
 10
247.8492389874922
 20
232.4635894549809
 10
247.8590522962082
 20
232.487752581926
 10
247.8688703732952
 20
232.5120587600189
 10
247.8786884503822
 20
232.536501432749
 10
247.8885112958412
 20
232.56107463965
 10
247.8983341413002
 20
232.585772420259
 10
247.9081617551312
 20
232.610589410158
 10
247.9179893689612
 20
232.63550653586
 10
247.9278169827923
 20
232.6605047238789
 10
247.9376350598792
 20
232.6855792058429
 10
247.9474531369673
 20
232.710722233149
 10
247.9572712140542
 20
232.735928441378
 10
247.9670892911422
 20
232.761191274019
 10
247.9769025998583
 20
232.786504174562
 10
247.9867206769452
 20
232.811861182543
 10
247.9965387540323
 20
232.837256337496
 10
248.0063615994912
 20
232.862682486864
 10
248.0161844449502
 20
232.8881342662299
 10
248.0260120587813
 20
232.913604523035
  0
LWPOLYLINE
  5
569
330
1F
100
AcDbEntity
  8
Sichtbare_Kanten_TC_020513_DIN_
  6
Continuous
 62
     7
100
AcDbPolyline
 90
       25
 70
     0
 43
0.0
 10
248.0260120587813
 20
232.913604523035
 10
248.0161844449502
 20
232.862663413378
 10
248.0063615994912
 20
232.811760450693
 10
247.9965387540323
 20
232.76090755591
 10
247.9867206769452
 20
232.710117842051
 10
247.9769025998583
 20
232.6594038260899
 10
247.9670892911422
 20
232.608777428957
 10
247.9572712140542
 20
232.558251763674
 10
247.9474531369673
 20
232.507839943262
 10
247.9376350598792
 20
232.457553292604
 10
247.9278169827923
 20
232.407404924723
 10
247.9179893689612
 20
232.3574079526389
 10
247.9081617551312
 20
232.307573701235
 10
247.8983341413002
 20
232.257940317484
 10
247.8885112958412
 20
232.208544756266
 10
247.8786884503822
 20
232.159398342463
 10
247.8688703732952
 20
232.110512997004
 10
247.8590522962082
 20
232.061900938841
 10
247.8492389874922
 20
232.013574386927
 10
247.8394209104042
 20
231.9655446661429
 10
247.8296028333173
 20
231.917824293467
 10
247.8197847562302
 20
231.870425189825
 10
247.8099666791422
 20
231.8233589781249
 10
247.8001390653122
 20
231.7766378773169
 10
247.7903114514812
 20
231.730273510309
  0
LWPOLYLINE
  5
56A
330
1F
100
AcDbEntity
  8
Sichtbare_Kanten_TC_020513_DIN_
  6
Continuous
 62
     7
100
AcDbPolyline
 90
       25
 70
     0
 43
0.0
 10
260.9025322156411
 20
244.909037495943
 10
260.9024559216963
 20
244.900109912249
 10
260.9022365766033
 20
244.891181136461
 10
260.9018741803633
 20
244.882253552767
 10
260.9013591962322
 20
244.873325969072
 10
260.9007011609542
 20
244.864399577471
 10
260.8999000745282
 20
244.855473185869
 10
260.8989464002112
 20
244.846545602175
 10
260.8978496747483
 20
244.8376192105729
 10
260.8966098981363
 20
244.8286916268789
 10
260.8952223020062
 20
244.819764043184
 10
260.8936868863563
 20
244.810835267397
 10
260.8920084195603
 20
244.801907683702
 10
260.8901821332443
 20
244.792978907915
 10
260.8882080274092
 20
244.784050132128
 10
260.8860908704263
 20
244.7751225484329
 10
260.8838306622962
 20
244.7661961568319
 10
260.8814226346473
 20
244.757268573137
 10
260.8788715558512
 20
244.748342181536
 10
260.8761726575362
 20
244.739414597841
 10
260.8733307080732
 20
244.73048820624
 10
260.8703409390913
 20
244.721560622545
 10
260.8672128873333
 20
244.712633038851
 10
260.8639370160562
 20
244.703705455156
 10
260.8605133252603
 20
244.6947766793689
  0
LWPOLYLINE
  5
56B
330
1F
100
AcDbEntity
  8
Sichtbare_Kanten_TC_020513_DIN_
  6
Continuous
 62
     7
100
AcDbPolyline
 90
       25
 70
     0
 43
0.0
 10
259.4815241055952
 20
244.6947766793689
 10
259.4832311826212
 20
244.703705455156
 10
259.4848715024452
 20
244.712633038851
 10
259.4864355283243
 20
244.721560622545
 10
259.4879280286292
 20
244.73048820624
 10
259.4893537717322
 20
244.739414597841
 10
259.4906984525193
 20
244.748342181536
 10
259.4919763761033
 20
244.757268573137
 10
259.4931780057412
 20
244.7661961568319
 10
259.4943128781782
 20
244.7751225484329
 10
259.4953714566692
 20
244.784050132128
 10
259.4963537412152
 20
244.792978907915
 10
259.4972692685593
 20
244.801907683702
 10
259.4981085019573
 20
244.810835267397
 10
259.4988762097822
 20
244.819764043184
 10
259.4995676236612
 20
244.8286916268789
 10
259.5001922803382
 20
244.8376192105729
 10
259.5007406430702
 20
244.846545602175
 10
259.5012127118572
 20
244.855473185869
 10
259.5016180234412
 20
244.864399577471
 10
259.5019470410813
 20
244.873325969072
 10
259.5021997647752
 20
244.882253552767
 10
259.5023857312661
 20
244.891181136461
 10
259.5024954038132
 20
244.900109912249
 10
259.5025287824143
 20
244.909037495943
  0
LWPOLYLINE
  5
56C
330
1F
100
AcDbEntity
  8
Sichtbare_Kanten_TC_020513_DIN_
  6
Continuous
 62
     7
100
AcDbPolyline
 90
       25
 70
     0
 43
0.0
 10
260.8605133252603
 20
244.6947766793689
 10
260.8568750577432
 20
244.685746575686
 10
260.8525644498333
 20
244.675732995363
 10
260.8475052075852
 20
244.664869452807
 10
260.8416162686812
 20
244.653294230791
 10
260.8348118024333
 20
244.641138459536
 10
260.8270202832682
 20
244.628541613909
 10
260.8181511121262
 20
244.615634824129
 10
260.8081232266892
 20
244.602556372972
 10
260.7968651013832
 20
244.589440966936
 10
260.7842861371502
 20
244.576422120424
 10
260.7703100400432
 20
244.56363692412
 10
260.7548557477462
 20
244.551218892427
 10
260.7378374295693
 20
244.5393051160299
 10
260.7191787915692
 20
244.528030301424
 10
260.6991134839522
 20
244.517663861605
 10
260.6779800611002
 20
244.5084072602709
 10
260.6557880597572
 20
244.500256921144
 10
260.6325422482952
 20
244.493205691668
 10
260.6082569318282
 20
244.487252379747
 10
260.5829464154703
 20
244.4823910249199
 10
260.5566106992231
 20
244.478618050905
 10
260.5292688565712
 20
244.4759286893329
 10
260.5009256558882
 20
244.474318171831
 10
260.4715906339153
 20
244.473781730028
  0
LWPOLYLINE
  5
56D
330
1F
100
AcDbEntity
  8
Sichtbare_Kanten_TC_020513_DIN_
  6
Continuous
 62
     7
100
AcDbPolyline
 90
       25
 70
     0
 43
0.0
 10
259.2870603757363
 20
244.473781730028
 10
259.3013273435103
 20
244.474290753695
 10
259.3150745587813
 20
244.4758118642289
 10
259.3283020215492
 20
244.478334332796
 10
259.3410097318161
 20
244.481846238466
 10
259.3531929212082
 20
244.486339236589
 10
259.3648611264692
 20
244.491802598329
 10
259.3760048108562
 20
244.498223210665
 10
259.3866335111122
 20
244.505593921038
 10
259.3967376904952
 20
244.513901616426
 10
259.4063078122603
 20
244.523124839159
 10
259.4153200345503
 20
244.533208752962
 10
259.4237791257363
 20
244.544125939699
 10
259.4317041593062
 20
244.555852557512
 10
259.4391094403733
 20
244.568368340822
 10
259.4460045056802
 20
244.581648255678
 10
259.4523702817422
 20
244.595576669069
 10
259.4580446439253
 20
244.609613562914
 10
259.4630514340862
 20
244.623526479097
 10
259.4674287991983
 20
244.637143756243
 10
259.4712244229783
 20
244.650293732973
 10
259.4744859891403
 20
244.662804747911
 10
259.4772611814002
 20
244.6745039475879
 10
259.4795881467333
 20
244.685218478533
 10
259.4815241055952
 20
244.6947766793689
  0
LWPOLYLINE
  5
56E
330
1F
100
AcDbEntity
  8
Sichtbare_Kanten_TC_020513_DIN_
  6
Continuous
 62
     7
100
AcDbPolyline
 90
       25
 70
     0
 43
0.0
 10
418.6049801372143
 20
244.6947766793689
 10
418.5850340388862
 20
244.703705455156
 10
418.5650617145153
 20
244.712633038851
 10
418.5450703166572
 20
244.721560622545
 10
418.5250550769423
 20
244.73048820624
 10
418.5050207637402
 20
244.739414597841
 10
418.4849673770513
 20
244.748342181536
 10
418.4648925326912
 20
244.757268573137
 10
418.4448009990302
 20
244.7661961568319
 10
418.4246927760693
 20
244.7751225484329
 10
418.4045678638073
 20
244.784050132128
 10
418.3844262622442
 20
244.792978907915
 10
418.3642679713813
 20
244.801907683702
 10
418.3441001437752
 20
244.810835267397
 10
418.3239203952402
 20
244.819764043184
 10
418.3037311099622
 20
244.8286916268789
 10
418.2835346721262
 20
244.8376192105729
 10
418.2633286975473
 20
244.846545602175
 10
418.2431155704113
 20
244.855473185869
 10
418.2228952907173
 20
244.864399577471
 10
418.2026726268383
 20
244.873325969072
 10
418.1824428104012
 20
244.882253552767
 10
418.1622082255932
 20
244.891181136461
 10
418.1419736407842
 20
244.900109912249
 10
418.1217342876042
 20
244.909037495943
  0
LWPOLYLINE
  5
56F
330
1F
100
AcDbEntity
  8
Sichtbare_Kanten_TC_020513_DIN_
  6
Continuous
 62
     7
100
AcDbPolyline
 90
       25
 70
     0
 43
0.0
 10
419.6142322085942
 20
244.473781730028
 10
419.5664745830153
 20
244.474320556017
 10
419.5181852840032
 20
244.475940610262
 10
419.4693953059763
 20
244.478646661135
 10
419.4201404117192
 20
244.482443477007
 10
419.3704563640202
 20
244.487333442064
 10
419.3203789256662
 20
244.493322516771
 10
419.2699367068852
 20
244.500414277407
 10
419.2191702388373
 20
244.508613492342
 10
419.1681105159372
 20
244.517923737856
 10
419.1168242953862
 20
244.528345013948
 10
419.0665728114692
 20
244.539626981112
 10
419.0180498622502
 20
244.551540757509
 10
418.9713508151623
 20
244.563950444552
 10
418.9265686534492
 20
244.576722527834
 10
418.8837987445442
 20
244.589722300859
 10
418.8431340716923
 20
244.602815057131
 10
418.8046700023263
 20
244.615867282244
 10
418.7685042880622
 20
244.628743077608
 10
418.7347251437752
 20
244.64130892882
 10
418.7034303210822
 20
244.653428937288
 10
418.6747151874153
 20
244.664970780703
 10
418.6486727260202
 20
244.675798560472
 10
418.6253959201423
 20
244.685778762194
 10
418.6049801372143
 20
244.6947766793689
  0
LWPOLYLINE
  5
570
330
1F
100
AcDbEntity
  8
Sichtbare_Kanten_TC_020513_DIN_
  6
Continuous
 62
     7
100
AcDbPolyline
 90
       25
 70
     0
 43
0.0
 10
419.7840720676072
 20
231.730273510309
 10
419.7629624866132
 20
231.7766378773169
 10
419.7427112125052
 20
231.8233589781249
 10
419.7233158610952
 20
231.870425189825
 10
419.7047859691272
 20
231.917824293467
 10
419.6871215366012
 20
231.9655446661429
 10
419.6703297160752
 20
232.013574386927
 10
419.6544128917343
 20
232.061900938841
 10
419.6393758319503
 20
232.110512997004
 10
419.6252233050952
 20
232.159398342463
 10
419.6119576953543
 20
232.208544756266
 10
419.5995837710983
 20
232.257940317484
 10
419.5881039165153
 20
232.307573701235
 10
419.5775324367172
 20
232.3574079526389
 10
419.5678717158922
 20
232.407404924723
 10
419.5591241382252
 20
232.457553292604
 10
419.5512897037153
 20
232.507839943262
 10
419.5443755649212
 20
232.558251763674
 10
419.5383769534712
 20
232.608777428957
 10
419.5332962535512
 20
232.6594038260899
 10
419.5291382335312
 20
232.710117842051
 10
419.5259005092272
 20
232.76090755591
 10
419.5235878490101
 20
232.811760450693
 10
419.5221978686933
 20
232.862663413378
 10
419.5217329524643
 20
232.913604523035
  0
LWPOLYLINE
  5
571
330
1F
100
AcDbEntity
  8
Sichtbare_Kanten_TC_020513_DIN_
  6
Continuous
 62
     7
100
AcDbPolyline
 90
       25
 70
     0
 43
0.0
 10
420.9217340015063
 20
232.913604523035
 10
420.9219652675282
 20
232.8881342662299
 10
420.9226614497792
 20
232.862682486864
 10
420.9238177798871
 20
232.837256337496
 10
420.9254366420392
 20
232.811861182543
 10
420.9275156520492
 20
232.786504174562
 10
420.9300548099172
 20
232.761191274019
 10
420.9330541156422
 20
232.735928441378
 10
420.9365111850392
 20
232.710722233149
 10
420.9404284022932
 20
232.6855792058429
 10
420.9448033832202
 20
232.6605047238789
 10
420.9496337436323
 20
232.63550653586
 10
420.9549194835312
 20
232.610589410158
 10
420.9606582187302
 20
232.585772420259
 10
420.9668451808583
 20
232.56107463965
 10
420.9734779857282
 20
232.536501432749
 10
420.9805542491562
 20
232.5120587600189
 10
420.9880739711413
 20
232.487752581926
 10
420.9960323833112
 20
232.4635894549809
 10
421.0044271014823
 20
232.4395747436009
 10
421.0132605098372
 20
232.415714408251
 10
421.0225254558212
 20
232.392015005442
 10
421.0322219394333
 20
232.368481899591
 10
421.0423475764882
 20
232.3451210511649
 10
421.0529023669842
 20
232.321939016672
  0
LWPOLYLINE
  5
572
330
1F
100
AcDbEntity
  8
Sichtbare_Kanten_TC_020513_DIN_
  6
Continuous
 62
     7
100
AcDbPolyline
 90
       25
 70
     0
 43
0.0
 10
420.0124150775563
 20
244.473781730028
 10
420.0781280063283
 20
244.565599109026
 10
420.1475602649342
 20
244.654778386446
 10
420.2206379436142
 20
244.7412003529989
 10
420.2972466014512
 20
244.82470288405
 10
420.3770643733632
 20
244.904931928011
 10
420.4599434398302
 20
244.981767083498
 10
420.5457717441212
 20
245.055124904009
 10
420.6344372295033
 20
245.1249267114119
 10
420.7258302234303
 20
245.191089059206
 10
420.8198362849843
 20
245.253530885073
 10
420.9163457416192
 20
245.3121699346029
 10
421.0152441524162
 20
245.3669251454789
 10
421.1164218448292
 20
245.4177142632919
 10
421.2196880839953
 20
245.464422847124
 10
421.3246900104172
 20
245.506886388155
 10
421.4312798045762
 20
245.545054818483
 10
421.5393287204392
 20
245.578882838579
 10
421.6487008594162
 20
245.608327533098
 10
421.7592507861742
 20
245.633340026232
 10
421.8706685565602
 20
245.6538476003129
 10
421.9827634357102
 20
245.669825221392
 10
422.0953995250353
 20
245.681256200167
 10
422.2084361575732
 20
245.688126231523
 10
422.3217350505482
 20
245.690418626162
  0
LWPOLYLINE
  5
573
330
1F
100
AcDbEntity
  8
Sichtbare_Kanten_TC_020513_DIN_
  6
Continuous
 62
     7
100
AcDbPolyline
 90
       25
 70
     0
 43
0.0
 10
422.3217350505482
 20
244.290418769213
 10
422.2500878833422
 20
244.288584138247
 10
422.1787745021472
 20
244.2831005109269
 10
422.1079284213672
 20
244.2739953053909
 10
422.0376855395922
 20
244.261299516054
 10
421.9681865237842
 20
244.245041753145
 10
421.8995648883473
 20
244.225249434801
 10
421.8319613002433
 20
244.2019535554369
 10
421.7655116580612
 20
244.175182725283
 10
421.7004710696832
 20
244.145023967119
 10
421.6371876262313
 20
244.111645366045
 10
421.5757781528122
 20
244.075133944841
 10
421.5163594745292
 20
244.035569573732
 10
421.4590436481132
 20
243.993035699221
 10
421.4039451144822
 20
243.947614575716
 10
421.3511759303702
 20
243.899387265535
 10
421.3008505366933
 20
243.848437215181
 10
421.2531358264572
 20
243.794907475802
 10
421.2083012126572
 20
243.7391044152699
 10
421.1664325259812
 20
243.681165124269
 10
421.1276060603752
 20
243.621210004183
 10
421.0918909572253
 20
243.5593606484849
 10
421.0593587421073
 20
243.495735074373
 10
421.0300833247792
 20
243.430456067415
 10
421.0041386150012
 20
243.363642836901
  0
LWPOLYLINE
  5
574
330
1F
100
AcDbEntity
  8
Sichtbare_Kanten_TC_020513_DIN_
  6
Continuous
 62
     7
100
AcDbPolyline
 90
       25
 70
     0
 43
0.0
 10
421.0041386150012
 20
243.363642836901
 10
420.9992438815722
 20
243.349751378389
 10
420.9939462207443
 20
243.334103967043
 10
420.9883290790212
 20
243.316795970293
 10
420.9824830554612
 20
243.297927523943
 10
420.9764915965683
 20
243.27759637961
 10
420.9704476855883
 20
243.255900288912
 10
420.9644347690232
 20
243.232939387651
 10
420.9585410617482
 20
243.208810235353
 10
420.9528547786362
 20
243.183610583635
 10
420.9474641345632
 20
243.157441760393
 10
420.9424573444022
 20
243.130399133058
 10
420.9379750751142
 20
243.103152657839
 10
420.9341842197072
 20
243.0772651685199
 10
420.9310347102772
 20
243.0528284562549
 10
420.9284669421803
 20
243.029852057787
 10
420.9264189265851
 20
243.0083455098589
 10
420.9248358272203
 20
242.9883207334
 10
420.9236580394392
 20
242.969784880968
 10
420.9228211902272
 20
242.952748681398
 10
420.9222728274953
 20
242.9372228635269
 10
420.9219485782272
 20
242.923216964098
 10
420.9217888377792
 20
242.910741711946
 10
420.9217387698783
 20
242.899805451723
 10
420.9217340015063
 20
242.890418912264
  0
SOLID
  5
575
330
1F
100
AcDbEntity
  8
Symbole_TC_020513_DIN_
 62
     7
100
AcDbTrace
 10
421.8876906987156
 20
163.3544938620495
 30
0.0
 11
419.6949734481917
 21
161.8967754023822
 31
0.0
 12
415.2550965808472
 22
170.953305169071
 32
0.0
 13
415.2550965808472
 23
170.953305169071
 33
0.0
  0
LEADER
  5
576
330
1F
100
AcDbEntity
  8
Symbole_TC_020513_DIN_
  6
Continuous
 62
     7
100
AcDbLeader
  3
Standard
 71
     0
 76
     3
 10
415.2550965808472
 20
170.953305169071
 30
0.0
 10
436.1678743730772
 20
139.496058869355
 30
0.0
 10
439.5678743730772
 20
139.496058869355
 30
0.0
  0
DIMENSION
  5
582
330
1F
100
AcDbEntity
  8
Bemaßungen_TC_020513_DIN_
100
AcDbDimension
  2
*D3
 10
301.0930775719742
 20
205.0547964509449
 30
0.0
 11
289.1732381605726
 21
189.396166164451
 31
0.0
 70
    32
  1
PG21
 71
     5
 42
-1.0
 53
90.0
  3
ME10_DIM_10
100
AcDbAlignedDimension
 13
269.9025303082932
 23
175.950796450945
 33
0.0
 14
269.9025303082932
 24
205.054796450945
 34
0.0
 50
90.0
100
AcDbRotatedDimension
  0
DIMENSION
  5
58D
330
1F
100
AcDbEntity
  8
Bemaßungen_TC_020513_DIN_
100
AcDbDimension
  2
*D4
 10
345.5050965808491
 20
322.474487993233
 30
0.0
 11
392.8234290019062
 21
334.2039016344404
 31
0.0
 70
    32
  1
93
 71
     5
 42
-1.0
 53
0.00013888888889
  3
ME10_DIM_11
100
AcDbAlignedDimension
 13
438.6890465525682
 23
216.112796450945
 33
0.0
 14
345.5050965808492
 24
290.612796450945
 34
0.0
100
AcDbRotatedDimension
  0
DIMENSION
  5
598
330
1F
100
AcDbEntity
  8
Bemaßungen_TC_020513_DIN_
100
AcDbDimension
  2
*D5
 10
130.9025303082926
 20
322.9744879932331
 30
0.0
 11
199.1233761473103
 21
334.7039016344404
 31
0.0
 70
    32
  1
134
 71
     5
 42
-1.0
 53
0.00013888888889
  3
ME10_DIM_12
100
AcDbAlignedDimension
 13
264.9025303082932
 23
227.112796450945
 33
0.0
 14
130.9025303082932
 24
227.112796450945
 34
0.0
100
AcDbRotatedDimension
  0
DIMENSION
  5
5A3
330
1F
100
AcDbEntity
  8
Bemaßungen_TC_020513_DIN_
100
AcDbDimension
  2
*D6
 10
106.5632268257057
 20
171.1127964509452
 30
0.0
 11
92.52846407737366
 21
237.705293040304
 31
0.0
 70
    32
  1
127,5
 71
     5
 42
-1.0
 53
90.0
  3
ME10_DIM_13
100
AcDbAlignedDimension
 13
188.9025303082932
 23
298.612796450945
 33
0.0
 14
125.9025303082932
 24
171.112796450945
 34
0.0
 50
90.0
100
AcDbRotatedDimension
  0
DIMENSION
  5
5AE
330
1F
100
AcDbEntity
  8
Bemaßungen_TC_020513_DIN_
100
AcDbDimension
  2
*D7
 10
468.0434050385611
 20
171.1127964509451
 30
0.0
 11
456.3139913973538
 21
203.3200542954199
 31
0.0
 70
    32
  1
63
 71
     5
 42
-1.0
 53
90.0
  3
ME10_DIM_14
100
AcDbAlignedDimension
 13
411.9050965808492
 23
234.112796450945
 33
0.0
 14
421.2550965808453
 24
171.112796450945
 34
0.0
 50
90.0
100
AcDbRotatedDimension
  0
DIMENSION
  5
5BB
330
1F
100
AcDbEntity
  8
Bemaßungen_TC_020513_DIN_
100
AcDbDimension
  2
*D8
 10
447.0740538087958
 20
175.1127964509449
 30
0.0
 11
435.601914505313
 21
189.582796450945
 31
0.0
 70
    32
  1
4
 71
     5
 42
-1.0
 53
90.0
  3
ME10_DIM_15
100
AcDbAlignedDimension
 13
421.2550965808453
 23
171.112796450945
 33
0.0
 14
421.2550965808453
 24
175.112796450945
 34
0.0
 50
90.0
100
AcDbRotatedDimension
  0
DIMENSION
  5
5C6
330
1F
100
AcDbEntity
  8
Bemaßungen_TC_020513_DIN_
100
AcDbDimension
  2
*D9
 10
263.902530308293
 20
140.974487993233
 30
0.0
 11
199.1448631868742
 21
152.7039016344404
 31
0.0
 70
    32
  1
132
 71
     5
 42
-1.0
 53
0.00013888888889
  3
ME10_DIM_16
100
AcDbAlignedDimension
 13
131.9025303082932
 23
173.112796450945
 33
0.0
 14
263.9025303082932
 24
173.112796450945
 34
0.0
100
AcDbRotatedDimension
  0
DIMENSION
  5
5D1
330
1F
100
AcDbEntity
  8
Bemaßungen_TC_020513_DIN_
100
AcDbDimension
  2
*D10
 10
125.9025303082926
 20
119.0093138638798
 30
0.0
 11
199.1233761473103
 21
130.5449284240937
 31
0.0
 70
    32
  1
144
 71
     5
 42
-1.0
 53
0.00013888888889
  3
ME10_DIM_17
100
AcDbAlignedDimension
 13
269.9025303082932
 23
175.112796450945
 33
0.0
 14
125.9025303082932
 24
175.112796450945
 34
0.0
100
AcDbRotatedDimension
  0
DIMENSION
  5
5DC
330
1F
100
AcDbEntity
  8
Bemaßungen_TC_020513_DIN_
100
AcDbDimension
  2
*D11
 10
370.2550965808472
 20
139.9176490130059
 30
0.0
 11
393.3143325972183
 21
151.5788124998011
 31
0.0
 70
    32
  1
45
 71
     5
 42
-1.0
 53
0.00013888888889
  3
ME10_DIM_18
100
AcDbAlignedDimension
 13
415.2550965808472
 23
173.112796450945
 33
0.0
 14
370.2550965808472
 24
173.112796450945
 34
0.0
100
AcDbRotatedDimension
  0
DIMENSION
  5
5E7
330
1F
100
AcDbEntity
  8
Bemaßungen_TC_020513_DIN_
100
AcDbDimension
  2
*D12
 10
364.2550965808454
 20
119.0093138638803
 30
0.0
 11
393.4814540160432
 21
130.6356514800287
 31
0.0
 70
    32
  1
57
 71
     5
 42
-1.0
 53
0.00013888888889
  3
ME10_DIM_19
100
AcDbAlignedDimension
 13
421.2550965808453
 23
171.112796450945
 33
0.0
 14
364.2550965808453
 24
175.112796450945
 34
0.0
100
AcDbRotatedDimension
  0
ENDSEC
  0
SECTION
  2
OBJECTS
  0
DICTIONARY
  5
C
330
0
100
AcDbDictionary
281
     1
  3
ACAD_GROUP
350
D
  3
ACAD_LAYOUT
350
1A
  3
ACAD_MATERIAL
350
3B
  3
ACAD_MLEADERSTYLE
350
5EA
  3
ACAD_MLINESTYLE
350
17
  3
ACAD_PLOTSETTINGS
350
19
  3
ACAD_PLOTSTYLENAME
350
E
  3
ACAD_VISUALSTYLE
350
2A
  3
AcDbVariableDictionary
350
5E8
  0
DICTIONARY
  5
D
102
{ACAD_REACTORS
330
C
102
}
330
C
100
AcDbDictionary
281
     1
  0
DICTIONARY
  5
1A
102
{ACAD_REACTORS
330
C
102
}
330
C
100
AcDbDictionary
281
     1
  3
Layout1
350
1E
  3
Layout2
350
26
  3
Model
350
22
  0
DICTIONARY
  5
3B
102
{ACAD_REACTORS
330
C
102
}
330
C
100
AcDbDictionary
281
     1
  3
ByBlock
350
3D
  3
ByLayer
350
3C
  3
Global
350
3E
  0
DICTIONARY
  5
5EA
102
{ACAD_REACTORS
330
C
102
}
330
C
100
AcDbDictionary
281
     1
  0
DICTIONARY
  5
17
102
{ACAD_REACTORS
330
C
102
}
330
C
100
AcDbDictionary
281
     1
  3
Standard
350
18
  0
DICTIONARY
  5
19
102
{ACAD_REACTORS
330
C
102
}
330
C
100
AcDbDictionary
281
     1
  0
ACDBDICTIONARYWDFLT
  5
E
102
{ACAD_REACTORS
330
C
102
}
330
C
100
AcDbDictionary
281
     1
  3
Normal
350
F
100
AcDbDictionaryWithDefault
340
F
  0
DICTIONARY
  5
2A
102
{ACAD_REACTORS
330
C
102
}
330
C
100
AcDbDictionary
281
     1
  3
2dWireframe
350
2F
  3
3D Hidden
350
31
  3
3dWireframe
350
30
  3
Basic
350
32
  3
Brighten
350
36
  3
ColorChange
350
3A
  3
Conceptual
350
34
  3
Dim
350
35
  3
Facepattern
350
39
  3
Flat
350
2B
  3
FlatWithEdges
350
2C
  3
Gouraud
350
2D
  3
GouraudWithEdges
350
2E
  3
Linepattern
350
38
  3
Realistic
350
33
  3
Thicken
350
37
  0
DICTIONARY
  5
5E8
102
{ACAD_REACTORS
330
C
102
}
330
C
100
AcDbDictionary
281
     1
  3
DIMASSOC
350
5EB
  3
HIDETEXT
350
5EC
  0
LAYOUT
  5
1E
102
{ACAD_REACTORS
330
1A
102
}
330
1A
100
AcDbPlotSettings
  1

  2
none_device
  4

  6

 40
0.0
 41
0.0
 42
0.0
 43
0.0
 44
0.0
 45
0.0
 46
0.0
 47
0.0
 48
0.0
 49
0.0
140
0.0
141
0.0
142
1.0
143
1.0
 70
   688
 72
     0
 73
     0
 74
     5
  7

 75
    16
147
1.0
148
0.0
149
0.0
100
AcDbLayout
  1
Layout1
 70
     1
 71
     1
 10
0.0
 20
0.0
 11
12.0
 21
9.0
 12
0.0
 22
0.0
 32
0.0
 14
1.00000000000000E+20
 24
1.00000000000000E+20
 34
1.00000000000000E+20
 15
-1.00000000000000E+20
 25
-1.00000000000000E+20
 35
-1.00000000000000E+20
146
0.0
 13
0.0
 23
0.0
 33
0.0
 16
1.0
 26
0.0
 36
0.0
 17
0.0
 27
1.0
 37
0.0
 76
     0
330
1B
  0
LAYOUT
  5
26
102
{ACAD_REACTORS
330
1A
102
}
330
1A
100
AcDbPlotSettings
  1

  2
none_device
  4

  6

 40
0.0
 41
0.0
 42
0.0
 43
0.0
 44
0.0
 45
0.0
 46
0.0
 47
0.0
 48
0.0
 49
0.0
140
0.0
141
0.0
142
1.0
143
1.0
 70
   688
 72
     0
 73
     0
 74
     5
  7

 75
    16
147
1.0
148
0.0
149
0.0
100
AcDbLayout
  1
Layout2
 70
     1
 71
     2
 10
0.0
 20
0.0
 11
0.0
 21
0.0
 12
0.0
 22
0.0
 32
0.0
 14
0.0
 24
0.0
 34
0.0
 15
0.0
 25
0.0
 35
0.0
146
0.0
 13
0.0
 23
0.0
 33
0.0
 16
1.0
 26
0.0
 36
0.0
 17
0.0
 27
1.0
 37
0.0
 76
     0
330
23
  0
LAYOUT
  5
22
102
{ACAD_REACTORS
330
1A
102
}
330
1A
100
AcDbPlotSettings
  1

  2
none_device
  4

  6

 40
0.0
 41
0.0
 42
0.0
 43
0.0
 44
0.0
 45
0.0
 46
0.0
 47
0.0
 48
0.0
 49
0.0
140
0.0
141
0.0
142
1.0
143
1.0
 70
  1712
 72
     0
 73
     0
 74
     0
  7

 75
     0
147
1.0
148
0.0
149
0.0
100
AcDbLayout
  1
Model
 70
     1
 71
     0
 10
0.0
 20
0.0
 11
12.0
 21
9.0
 12
0.0
 22
0.0
 32
0.0
 14
0.0
 24
0.0
 34
0.0
 15
594.0000000000001
 25
420.0000000000002
 35
0.0
146
0.0
 13
0.0
 23
0.0
 33
0.0
 16
1.0
 26
0.0
 36
0.0
 17
0.0
 27
1.0
 37
0.0
 76
     0
330
1F
331
29
  0
MATERIAL
  5
3D
102
{ACAD_REACTORS
330
3B
102
}
102
{ACAD_XDICTIONARY
360
60F
102
}
330
3B
100
AcDbMaterial
  1
ByBlock
  0
MATERIAL
  5
3C
102
{ACAD_REACTORS
330
3B
102
}
102
{ACAD_XDICTIONARY
360
60D
102
}
330
3B
100
AcDbMaterial
  1
ByLayer
  0
MATERIAL
  5
3E
102
{ACAD_REACTORS
330
3B
102
}
102
{ACAD_XDICTIONARY
360
611
102
}
330
3B
100
AcDbMaterial
  1
Global
  0
MLINESTYLE
  5
18
102
{ACAD_REACTORS
330
17
102
}
330
17
100
AcDbMlineStyle
  2
Standard
 70
     0
  3

 62
   256
 51
90.0
 52
90.0
 71
     2
 49
0.5
 62
   256
  6
BYLAYER
 49
-0.5
 62
   256
  6
BYLAYER
  0
ACDBPLACEHOLDER
  5
F
102
{ACAD_REACTORS
330
E
102
}
330
E
  0
VISUALSTYLE
  5
2F
102
{ACAD_REACTORS
330
2A
102
}
102
{ACAD_XDICTIONARY
360
5F5
102
}
330
2A
100
AcDbVisualStyle
  2
2dWireframe
 70
     4
 71
     0
 72
     2
 73
     0
 90
        0
 40
-0.6
 41
-30.0
 62
     5
 63
     7
 74
     1
 91
        4
 64
     7
 65
   257
 75
     1
175
     1
 42
1.0
 92
        0
 66
   257
 43
1.0
 76
     1
 77
     6
 78
     2
 67
     7
 79
     5
170
     0
171
     0
290
     0
174
     0
 93
        1
 44
0.0
173
     0
291
     0
 45
0.0
1001
ACAD
1000
AcDbSavedByObjectVersion
1070
     0
  0
VISUALSTYLE
  5
31
102
{ACAD_REACTORS
330
2A
102
}
102
{ACAD_XDICTIONARY
360
5F9
102
}
330
2A
100
AcDbVisualStyle
  2
3D Hidden
 70
     6
 71
     1
 72
     2
 73
     2
 90
        0
 40
-0.6
 41
-30.0
 62
     5
 63
     7
 74
     2
 91
        2
 64
     7
 65
   257
 75
     2
175
     1
 42
40.0
 92
        0
 66
   257
 43
1.0
 76
     1
 77
     6
 78
     2
 67
     7
 79
     3
170
     0
171
     0
290
     0
174
     0
 93
        1
 44
0.0
173
     0
291
     0
 45
0.0
1001
ACAD
1000
AcDbSavedByObjectVersion
1070
     0
  0
VISUALSTYLE
  5
30
102
{ACAD_REACTORS
330
2A
102
}
102
{ACAD_XDICTIONARY
360
5F7
102
}
330
2A
100
AcDbVisualStyle
  2
3dWireframe
 70
     5
 71
     0
 72
     2
 73
     0
 90
        0
 40
-0.6
 41
-30.0
 62
     5
 63
     7
 74
     1
 91
        4
 64
     7
 65
   257
 75
     1
175
     1
 42
1.0
 92
        0
 66
   257
 43
1.0
 76
     1
 77
     6
 78
     2
 67
     7
 79
     5
170
     0
171
     0
290
     0
174
     0
 93
        1
 44
0.0
173
     0
291
     0
 45
0.0
1001
ACAD
1000
AcDbSavedByObjectVersion
1070
     0
  0
VISUALSTYLE
  5
32
102
{ACAD_REACTORS
330
2A
102
}
102
{ACAD_XDICTIONARY
360
5FB
102
}
330
2A
100
AcDbVisualStyle
  2
Basic
 70
     7
 71
     1
 72
     0
 73
     1
 90
        0
 40
-0.6
 41
-30.0
 62
     5
 63
     7
 74
     0
 91
        4
 64
     7
 65
   257
 75
     1
175
     1
 42
1.0
 92
        8
 66
     7
 43
1.0
 76
     1
 77
     6
 78
     2
 67
     7
 79
     5
170
     0
171
     0
290
     0
174
     0
 93
        1
 44
0.0
173
     0
291
     1
 45
0.0
1001
ACAD
1000
AcDbSavedByObjectVersion
1070
     0
  0
VISUALSTYLE
  5
36
102
{ACAD_REACTORS
330
2A
102
}
102
{ACAD_XDICTIONARY
360
603
102
}
330
2A
100
AcDbVisualStyle
  2
Brighten
 70
    12
 71
     2
 72
     2
 73
     0
 90
        0
 40
-0.6
 41
-30.0
 62
     5
 63
     7
 74
     1
 91
        4
 64
     7
 65
   257
 75
     1
175
     1
 42
1.0
 92
        8
 66
     7
 43
1.0
 76
     1
 77
     6
 78
     2
 67
     7
 79
     5
170
     0
171
     0
290
     0
174
     0
 93
        1
 44
50.0
173
     0
291
     1
 45
0.0
1001
ACAD
1000
AcDbSavedByObjectVersion
1070
     0
  0
VISUALSTYLE
  5
3A
102
{ACAD_REACTORS
330
2A
102
}
102
{ACAD_XDICTIONARY
360
60B
102
}
330
2A
100
AcDbVisualStyle
  2
ColorChange
 70
    16
 71
     2
 72
     2
 73
     3
 90
        0
 40
-0.6
 41
-30.0
 62
     5
 63
     8
 74
     1
 91
        4
 64
     7
 65
   257
 75
     1
175
     1
 42
1.0
 92
        8
 66
     8
 43
1.0
 76
     1
 77
     6
 78
     2
 67
     7
 79
     5
170
     0
171
     0
290
     0
174
     0
 93
        1
 44
0.0
173
     0
291
     1
 45
0.0
1001
ACAD
1000
AcDbSavedByObjectVersion
1070
     0
  0
VISUALSTYLE
  5
34
102
{ACAD_REACTORS
330
2A
102
}
102
{ACAD_XDICTIONARY
360
5FF
102
}
330
2A
100
AcDbVisualStyle
  2
Conceptual
 70
     9
 71
     3
 72
     2
 73
     0
 90
        0
 40
-0.6
 41
-30.0
 62
     5
 63
     7
 74
     2
 91
        2
 64
     7
 65
   257
 75
     1
175
     1
 42
40.0
 92
        8
 66
     7
 43
1.0
 76
     1
 77
     6
 78
     2
 67
     7
 79
     3
170
     0
171
     0
290
     0
174
     0
 93
        1
 44
0.0
173
     0
291
     0
 45
0.0
1001
ACAD
1000
AcDbSavedByObjectVersion
1070
     0
  0
VISUALSTYLE
  5
35
102
{ACAD_REACTORS
330
2A
102
}
102
{ACAD_XDICTIONARY
360
601
102
}
330
2A
100
AcDbVisualStyle
  2
Dim
 70
    11
 71
     2
 72
     2
 73
     0
 90
        0
 40
-0.6
 41
-30.0
 62
     5
 63
     7
 74
     1
 91
        4
 64
     7
 65
   257
 75
     1
175
     1
 42
1.0
 92
        8
 66
     7
 43
1.0
 76
     1
 77
     6
 78
     2
 67
     7
 79
     5
170
     0
171
     0
290
     0
174
     0
 93
        1
 44
-50.0
173
     0
291
     1
 45
0.0
1001
ACAD
1000
AcDbSavedByObjectVersion
1070
     0
  0
VISUALSTYLE
  5
39
102
{ACAD_REACTORS
330
2A
102
}
102
{ACAD_XDICTIONARY
360
609
102
}
330
2A
100
AcDbVisualStyle
  2
Facepattern
 70
    15
 71
     2
 72
     2
 73
     0
 90
        0
 40
-0.6
 41
-30.0
 62
     5
 63
     7
 74
     1
 91
        4
 64
     7
 65
   257
 75
     1
175
     1
 42
1.0
 92
        8
 66
     7
 43
1.0
 76
     1
 77
     6
 78
     2
 67
     7
 79
     5
170
     0
171
     0
290
     0
174
     0
 93
        1
 44
0.0
173
     0
291
     1
 45
0.0
1001
ACAD
1000
AcDbSavedByObjectVersion
1070
     0
  0
VISUALSTYLE
  5
2B
102
{ACAD_REACTORS
330
2A
102
}
102
{ACAD_XDICTIONARY
360
5ED
102
}
330
2A
100
AcDbVisualStyle
  2
Flat
 70
     0
 71
     2
 72
     1
 73
     1
 90
        2
 40
-0.6
 41
30.0
 62
     5
 63
     7
 74
     0
 91
        4
 64
     7
 65
   257
 75
     1
175
     1
 42
1.0
 92
        8
 66
     7
 43
1.0
 76
     1
 77
     6
 78
     2
 67
     7
 79
     5
170
     0
171
     0
290
     0
174
     0
 93
       13
 44
0.0
173
     0
291
     1
 45
0.0
1001
ACAD
1000
AcDbSavedByObjectVersion
1070
     0
  0
VISUALSTYLE
  5
2C
102
{ACAD_REACTORS
330
2A
102
}
102
{ACAD_XDICTIONARY
360
5EF
102
}
330
2A
100
AcDbVisualStyle
  2
FlatWithEdges
 70
     1
 71
     2
 72
     1
 73
     1
 90
        2
 40
-0.6
 41
30.0
 62
     5
 63
     7
 74
     1
 91
        4
 64
     7
 65
   257
 75
     1
175
     1
 42
1.0
 92
        0
 66
   257
 43
1.0
 76
     1
 77
     6
 78
     2
 67
     7
 79
     5
170
     0
171
     0
290
     0
174
     0
 93
       13
 44
0.0
173
     0
291
     1
 45
0.0
1001
ACAD
1000
AcDbSavedByObjectVersion
1070
     0
  0
VISUALSTYLE
  5
2D
102
{ACAD_REACTORS
330
2A
102
}
102
{ACAD_XDICTIONARY
360
5F1
102
}
330
2A
100
AcDbVisualStyle
  2
Gouraud
 70
     2
 71
     2
 72
     2
 73
     1
 90
        2
 40
-0.6
 41
30.0
 62
     5
 63
     7
 74
     0
 91
        4
 64
     7
 65
   257
 75
     1
175
     1
 42
1.0
 92
        0
 66
     7
 43
1.0
 76
     1
 77
     6
 78
     2
 67
     7
 79
     5
170
     0
171
     0
290
     0
174
     0
 93
       13
 44
0.0
173
     0
291
     1
 45
0.0
1001
ACAD
1000
AcDbSavedByObjectVersion
1070
     0
  0
VISUALSTYLE
  5
2E
102
{ACAD_REACTORS
330
2A
102
}
102
{ACAD_XDICTIONARY
360
5F3
102
}
330
2A
100
AcDbVisualStyle
  2
GouraudWithEdges
 70
     3
 71
     2
 72
     2
 73
     1
 90
        2
 40
-0.6
 41
30.0
 62
     5
 63
     7
 74
     1
 91
        4
 64
     7
 65
   257
 75
     1
175
     1
 42
1.0
 92
        0
 66
   257
 43
1.0
 76
     1
 77
     6
 78
     2
 67
     7
 79
     5
170
     0
171
     0
290
     0
174
     0
 93
       13
 44
0.0
173
     0
291
     1
 45
0.0
1001
ACAD
1000
AcDbSavedByObjectVersion
1070
     0
  0
VISUALSTYLE
  5
38
102
{ACAD_REACTORS
330
2A
102
}
102
{ACAD_XDICTIONARY
360
607
102
}
330
2A
100
AcDbVisualStyle
  2
Linepattern
 70
    14
 71
     2
 72
     2
 73
     0
 90
        0
 40
-0.6
 41
-30.0
 62
     5
 63
     7
 74
     1
 91
        4
 64
     7
 65
   257
 75
     7
175
     7
 42
1.0
 92
        8
 66
     7
 43
1.0
 76
     1
 77
     6
 78
     2
 67
     7
 79
     5
170
     0
171
     0
290
     0
174
     0
 93
        1
 44
0.0
173
     0
291
     1
 45
0.0
1001
ACAD
1000
AcDbSavedByObjectVersion
1070
     0
  0
VISUALSTYLE
  5
33
102
{ACAD_REACTORS
330
2A
102
}
102
{ACAD_XDICTIONARY
360
5FD
102
}
330
2A
100
AcDbVisualStyle
  2
Realistic
 70
     8
 71
     2
 72
     2
 73
     0
 90
        0
 40
-0.6
 41
-30.0
 62
     5
 63
     7
 74
     1
 91
        0
 64
     7
 65
   257
 75
     1
175
     1
 42
1.0
 92
        8
 66
     8
 43
1.0
 76
     1
 77
     6
 78
     2
 67
     7
 79
     5
170
     0
171
     0
290
     0
174
     0
 93
       13
 44
0.0
173
     0
291
     0
 45
0.0
1001
ACAD
1000
AcDbSavedByObjectVersion
1070
     0
  0
VISUALSTYLE
  5
37
102
{ACAD_REACTORS
330
2A
102
}
102
{ACAD_XDICTIONARY
360
605
102
}
330
2A
100
AcDbVisualStyle
  2
Thicken
 70
    13
 71
     2
 72
     2
 73
     0
 90
        0
 40
-0.6
 41
-30.0
 62
     5
 63
     7
 74
     1
 91
        4
 64
     7
 65
   257
 75
     1
175
     1
 42
1.0
 92
       12
 66
     7
 43
1.0
 76
     1
 77
     6
 78
     2
 67
     7
 79
     5
170
     0
171
     0
290
     0
174
     0
 93
        1
 44
0.0
173
     0
291
     1
 45
0.0
1001
ACAD
1000
AcDbSavedByObjectVersion
1070
     0
  0
DICTIONARYVAR
  5
5EB
102
{ACAD_REACTORS
330
5E8
102
}
330
5E8
100
DictionaryVariables
280
     0
  1
2
  0
DICTIONARYVAR
  5
5EC
102
{ACAD_REACTORS
330
5E8
102
}
330
5E8
100
DictionaryVariables
280
     0
  1
1
  0
DICTIONARY
  5
60F
330
3D
100
AcDbDictionary
280
     1
281
     1
  3
ACAD_XREC_ROUNDTRIP
360
610
  0
DICTIONARY
  5
60D
330
3C
100
AcDbDictionary
280
     1
281
     1
  3
ACAD_XREC_ROUNDTRIP
360
60E
  0
DICTIONARY
  5
611
330
3E
100
AcDbDictionary
280
     1
281
     1
  3
ACAD_XREC_ROUNDTRIP
360
612
  0
DICTIONARY
  5
5F5
330
2F
100
AcDbDictionary
280
     1
281
     1
  3
ACAD_XREC_ROUNDTRIP
360
5F6
  0
DICTIONARY
  5
5F9
330
31
100
AcDbDictionary
280
     1
281
     1
  3
ACAD_XREC_ROUNDTRIP
360
5FA
  0
DICTIONARY
  5
5F7
330
30
100
AcDbDictionary
280
     1
281
     1
  3
ACAD_XREC_ROUNDTRIP
360
5F8
  0
DICTIONARY
  5
5FB
330
32
100
AcDbDictionary
280
     1
281
     1
  3
ACAD_XREC_ROUNDTRIP
360
5FC
  0
DICTIONARY
  5
603
330
36
100
AcDbDictionary
280
     1
281
     1
  3
ACAD_XREC_ROUNDTRIP
360
604
  0
DICTIONARY
  5
60B
330
3A
100
AcDbDictionary
280
     1
281
     1
  3
ACAD_XREC_ROUNDTRIP
360
60C
  0
DICTIONARY
  5
5FF
330
34
100
AcDbDictionary
280
     1
281
     1
  3
ACAD_XREC_ROUNDTRIP
360
600
  0
DICTIONARY
  5
601
330
35
100
AcDbDictionary
280
     1
281
     1
  3
ACAD_XREC_ROUNDTRIP
360
602
  0
DICTIONARY
  5
609
330
39
100
AcDbDictionary
280
     1
281
     1
  3
ACAD_XREC_ROUNDTRIP
360
60A
  0
DICTIONARY
  5
5ED
330
2B
100
AcDbDictionary
280
     1
281
     1
  3
ACAD_XREC_ROUNDTRIP
360
5EE
  0
DICTIONARY
  5
5EF
330
2C
100
AcDbDictionary
280
     1
281
     1
  3
ACAD_XREC_ROUNDTRIP
360
5F0
  0
DICTIONARY
  5
5F1
330
2D
100
AcDbDictionary
280
     1
281
     1
  3
ACAD_XREC_ROUNDTRIP
360
5F2
  0
DICTIONARY
  5
5F3
330
2E
100
AcDbDictionary
280
     1
281
     1
  3
ACAD_XREC_ROUNDTRIP
360
5F4
  0
DICTIONARY
  5
607
330
38
100
AcDbDictionary
280
     1
281
     1
  3
ACAD_XREC_ROUNDTRIP
360
608
  0
DICTIONARY
  5
5FD
330
33
100
AcDbDictionary
280
     1
281
     1
  3
ACAD_XREC_ROUNDTRIP
360
5FE
  0
DICTIONARY
  5
605
330
37
100
AcDbDictionary
280
     1
281
     1
  3
ACAD_XREC_ROUNDTRIP
360
606
  0
XRECORD
  5
610
102
{ACAD_REACTORS
330
60F
102
}
330
60F
100
AcDbXrecord
280
     1
102
MATERIAL
148
0.0
149
0.0
149
0.0
 93
        0
 94
      127
282
     0
 72
     1
 77
     1
171
     1
175
     1
179
     1
273
     0
  0
XRECORD
  5
60E
102
{ACAD_REACTORS
330
60D
102
}
330
60D
100
AcDbXrecord
280
     1
102
MATERIAL
148
0.0
149
0.0
149
0.0
 93
        0
 94
      127
282
     0
 72
     1
 77
     1
171
     1
175
     1
179
     1
273
     0
  0
XRECORD
  5
612
102
{ACAD_REACTORS
330
611
102
}
330
611
100
AcDbXrecord
280
     1
102
MATERIAL
148
0.0
149
0.0
149
0.0
 93
        0
 94
      127
282
     0
 72
     1
 77
     1
171
     1
175
     1
179
     1
273
     0
  0
XRECORD
  5
5F6
102
{ACAD_REACTORS
330
5F5
102
}
330
5F5
100
AcDbXrecord
280
     1
102
RTVSPropertyOp0
 70
     1
102
RTVSPropertyOp1
 70
     1
102
RTVSPropertyOp2
 70
     1
102
RTVSPropertyOp3
 70
     1
102
RTVSPropertyOp4
 70
     1
102
RTVSPropertyOp5
 70
     1
102
RTVSPropertyOp6
 70
     1
102
RTVSPropertyOp7
 70
     1
102
RTVSPropertyOp8
 70
     1
102
RTVSPropertyOp9
 70
     1
102
RTVSPropertyOp10
 70
     1
102
RTVSPropertyOp11
 70
     1
102
RTVSPropertyOp12
 70
     1
102
RTVSPropertyOp13
 70
     1
102
RTVSPropertyOp14
 70
     1
102
RTVSPropertyOp15
 70
     1
102
RTVSPropertyOp16
 70
     1
102
RTVSPropertyOp17
 70
     1
102
RTVSPropertyOp18
 70
     1
102
RTVSPropertyOp19
 70
     1
102
RTVSPropertyOp20
 70
     1
102
RTVSPropertyOp21
 70
     1
102
RTVSPropertyOp22
 70
     1
102
RTVSPropertyOp23
 70
     1
102
RTVSPropertyOp24
 70
     1
102
RTVSPropertyOp25
 70
     1
102
RTVSPropertyOp26
 70
     1
102
RTVSPropertyOp27
 70
     1
102
RTVSPropertyOp28
 70
     1
102
RTVSPropertyOp29
 70
     1
102
RTVSPropertyOp30
 70
     1
102
RTVSPropertyOp31
 70
     1
102
RTVSPropertyOp32
 70
     1
  0
XRECORD
  5
5FA
102
{ACAD_REACTORS
330
5F9
102
}
330
5F9
100
AcDbXrecord
280
     1
102
RTVSPropertyOp0
 70
     1
102
RTVSPropertyOp1
 70
     1
102
RTVSPropertyOp2
 70
     1
102
RTVSPropertyOp3
 70
     1
102
RTVSPropertyOp4
 70
     1
102
RTVSPropertyOp5
 70
     1
102
RTVSPropertyOp6
 70
     1
102
RTVSPropertyOp7
 70
     1
102
RTVSPropertyOp8
 70
     1
102
RTVSPropertyOp9
 70
     1
102
RTVSPropertyOp10
 70
     1
102
RTVSPropertyOp11
 70
     1
102
RTVSPropertyOp12
 70
     1
102
RTVSPropertyOp13
 70
     1
102
RTVSPropertyOp14
 70
     1
102
RTVSPropertyOp15
 70
     1
102
RTVSPropertyOp16
 70
     1
102
RTVSPropertyOp17
 70
     1
102
RTVSPropertyOp18
 70
     1
102
RTVSPropertyOp19
 70
     1
102
RTVSPropertyOp20
 70
     1
102
RTVSPropertyOp21
 70
     1
102
RTVSPropertyOp22
 70
     1
102
RTVSPropertyOp23
 70
     1
102
RTVSPropertyOp24
 70
     1
102
RTVSPropertyOp25
 70
     1
102
RTVSPropertyOp26
 70
     1
102
RTVSPropertyOp27
 70
     1
102
RTVSPropertyOp28
 70
     1
102
RTVSPropertyOp29
 70
     1
102
RTVSPropertyOp30
 70
     1
102
RTVSPropertyOp31
 70
     1
102
RTVSPropertyOp32
 70
     1
  0
XRECORD
  5
5F8
102
{ACAD_REACTORS
330
5F7
102
}
330
5F7
100
AcDbXrecord
280
     1
102
RTVSPropertyOp0
 70
     1
102
RTVSPropertyOp1
 70
     1
102
RTVSPropertyOp2
 70
     1
102
RTVSPropertyOp3
 70
     1
102
RTVSPropertyOp4
 70
     1
102
RTVSPropertyOp5
 70
     1
102
RTVSPropertyOp6
 70
     1
102
RTVSPropertyOp7
 70
     1
102
RTVSPropertyOp8
 70
     1
102
RTVSPropertyOp9
 70
     1
102
RTVSPropertyOp10
 70
     1
102
RTVSPropertyOp11
 70
     1
102
RTVSPropertyOp12
 70
     1
102
RTVSPropertyOp13
 70
     1
102
RTVSPropertyOp14
 70
     1
102
RTVSPropertyOp15
 70
     1
102
RTVSPropertyOp16
 70
     1
102
RTVSPropertyOp17
 70
     1
102
RTVSPropertyOp18
 70
     1
102
RTVSPropertyOp19
 70
     1
102
RTVSPropertyOp20
 70
     1
102
RTVSPropertyOp21
 70
     1
102
RTVSPropertyOp22
 70
     1
102
RTVSPropertyOp23
 70
     1
102
RTVSPropertyOp24
 70
     1
102
RTVSPropertyOp25
 70
     1
102
RTVSPropertyOp26
 70
     1
102
RTVSPropertyOp27
 70
     1
102
RTVSPropertyOp28
 70
     1
102
RTVSPropertyOp29
 70
     1
102
RTVSPropertyOp30
 70
     1
102
RTVSPropertyOp31
 70
     1
102
RTVSPropertyOp32
 70
     1
  0
XRECORD
  5
5FC
102
{ACAD_REACTORS
330
5FB
102
}
330
5FB
100
AcDbXrecord
280
     1
102
RTVSPropertyOp0
 70
     1
102
RTVSPropertyOp1
 70
     1
102
RTVSPropertyOp2
 70
     1
102
RTVSPropertyOp3
 70
     1
102
RTVSPropertyOp4
 70
     1
102
RTVSPropertyOp5
 70
     1
102
RTVSPropertyOp6
 70
     1
102
RTVSPropertyOp7
 70
     1
102
RTVSPropertyOp8
 70
     1
102
RTVSPropertyOp9
 70
     1
102
RTVSPropertyOp10
 70
     1
102
RTVSPropertyOp11
 70
     1
102
RTVSPropertyOp12
 70
     1
102
RTVSPropertyOp13
 70
     1
102
RTVSPropertyOp14
 70
     1
102
RTVSPropertyOp15
 70
     1
102
RTVSPropertyOp16
 70
     1
102
RTVSPropertyOp17
 70
     1
102
RTVSPropertyOp18
 70
     1
102
RTVSPropertyOp19
 70
     1
102
RTVSPropertyOp20
 70
     1
102
RTVSPropertyOp21
 70
     1
102
RTVSPropertyOp22
 70
     1
102
RTVSPropertyOp23
 70
     1
102
RTVSPropertyOp24
 70
     1
102
RTVSPropertyOp25
 70
     1
102
RTVSPropertyOp26
 70
     1
102
RTVSPropertyOp27
 70
     1
102
RTVSPropertyOp28
 70
     1
102
RTVSPropertyOp29
 70
     1
102
RTVSPropertyOp30
 70
     1
102
RTVSPropertyOp31
 70
     1
102
RTVSPropertyOp32
 70
     1
  0
XRECORD
  5
604
102
{ACAD_REACTORS
330
603
102
}
330
603
100
AcDbXrecord
280
     1
102
RTVSPropertyOp0
 70
     1
102
RTVSPropertyOp1
 70
     1
102
RTVSPropertyOp2
 70
     1
102
RTVSPropertyOp3
 70
     1
102
RTVSPropertyOp4
 70
     1
102
RTVSPropertyOp5
 70
     1
102
RTVSPropertyOp6
 70
     1
102
RTVSPropertyOp7
 70
     1
102
RTVSPropertyOp8
 70
     1
102
RTVSPropertyOp9
 70
     1
102
RTVSPropertyOp10
 70
     1
102
RTVSPropertyOp11
 70
     1
102
RTVSPropertyOp12
 70
     1
102
RTVSPropertyOp13
 70
     1
102
RTVSPropertyOp14
 70
     1
102
RTVSPropertyOp15
 70
     1
102
RTVSPropertyOp16
 70
     1
102
RTVSPropertyOp17
 70
     1
102
RTVSPropertyOp18
 70
     1
102
RTVSPropertyOp19
 70
     1
102
RTVSPropertyOp20
 70
     1
102
RTVSPropertyOp21
 70
     1
102
RTVSPropertyOp22
 70
     1
102
RTVSPropertyOp23
 70
     1
102
RTVSPropertyOp24
 70
     1
102
RTVSPropertyOp25
 70
     1
102
RTVSPropertyOp26
 70
     1
102
RTVSPropertyOp27
 70
     1
102
RTVSPropertyOp28
 70
     1
102
RTVSPropertyOp29
 70
     1
102
RTVSPropertyOp30
 70
     1
102
RTVSPropertyOp31
 70
     1
102
RTVSPropertyOp32
 70
     1
  0
XRECORD
  5
60C
102
{ACAD_REACTORS
330
60B
102
}
330
60B
100
AcDbXrecord
280
     1
102
RTVSPropertyOp0
 70
     1
102
RTVSPropertyOp1
 70
     1
102
RTVSPropertyOp2
 70
     1
102
RTVSPropertyOp3
 70
     1
102
RTVSPropertyOp4
 70
     1
102
RTVSPropertyOp5
 70
     1
102
RTVSPropertyOp6
 70
     1
102
RTVSPropertyOp7
 70
     1
102
RTVSPropertyOp8
 70
     1
102
RTVSPropertyOp9
 70
     1
102
RTVSPropertyOp10
 70
     1
102
RTVSPropertyOp11
 70
     1
102
RTVSPropertyOp12
 70
     1
102
RTVSPropertyOp13
 70
     1
102
RTVSPropertyOp14
 70
     1
102
RTVSPropertyOp15
 70
     1
102
RTVSPropertyOp16
 70
     1
102
RTVSPropertyOp17
 70
     1
102
RTVSPropertyOp18
 70
     1
102
RTVSPropertyOp19
 70
     1
102
RTVSPropertyOp20
 70
     1
102
RTVSPropertyOp21
 70
     1
102
RTVSPropertyOp22
 70
     1
102
RTVSPropertyOp23
 70
     1
102
RTVSPropertyOp24
 70
     1
102
RTVSPropertyOp25
 70
     1
102
RTVSPropertyOp26
 70
     1
102
RTVSPropertyOp27
 70
     1
102
RTVSPropertyOp28
 70
     1
102
RTVSPropertyOp29
 70
     1
102
RTVSPropertyOp30
 70
     1
102
RTVSPropertyOp31
 70
     1
102
RTVSPropertyOp32
 70
     1
  0
XRECORD
  5
600
102
{ACAD_REACTORS
330
5FF
102
}
330
5FF
100
AcDbXrecord
280
     1
102
RTVSPropertyOp0
 70
     1
102
RTVSPropertyOp1
 70
     1
102
RTVSPropertyOp2
 70
     1
102
RTVSPropertyOp3
 70
     1
102
RTVSPropertyOp4
 70
     1
102
RTVSPropertyOp5
 70
     1
102
RTVSPropertyOp6
 70
     1
102
RTVSPropertyOp7
 70
     1
102
RTVSPropertyOp8
 70
     1
102
RTVSPropertyOp9
 70
     1
102
RTVSPropertyOp10
 70
     1
102
RTVSPropertyOp11
 70
     1
102
RTVSPropertyOp12
 70
     1
102
RTVSPropertyOp13
 70
     1
102
RTVSPropertyOp14
 70
     1
102
RTVSPropertyOp15
 70
     1
102
RTVSPropertyOp16
 70
     1
102
RTVSPropertyOp17
 70
     1
102
RTVSPropertyOp18
 70
     1
102
RTVSPropertyOp19
 70
     1
102
RTVSPropertyOp20
 70
     1
102
RTVSPropertyOp21
 70
     1
102
RTVSPropertyOp22
 70
     1
102
RTVSPropertyOp23
 70
     1
102
RTVSPropertyOp24
 70
     1
102
RTVSPropertyOp25
 70
     1
102
RTVSPropertyOp26
 70
     1
102
RTVSPropertyOp27
 70
     1
102
RTVSPropertyOp28
 70
     1
102
RTVSPropertyOp29
 70
     1
102
RTVSPropertyOp30
 70
     1
102
RTVSPropertyOp31
 70
     1
102
RTVSPropertyOp32
 70
     1
  0
XRECORD
  5
602
102
{ACAD_REACTORS
330
601
102
}
330
601
100
AcDbXrecord
280
     1
102
RTVSPropertyOp0
 70
     1
102
RTVSPropertyOp1
 70
     1
102
RTVSPropertyOp2
 70
     1
102
RTVSPropertyOp3
 70
     1
102
RTVSPropertyOp4
 70
     1
102
RTVSPropertyOp5
 70
     1
102
RTVSPropertyOp6
 70
     1
102
RTVSPropertyOp7
 70
     1
102
RTVSPropertyOp8
 70
     1
102
RTVSPropertyOp9
 70
     1
102
RTVSPropertyOp10
 70
     1
102
RTVSPropertyOp11
 70
     1
102
RTVSPropertyOp12
 70
     1
102
RTVSPropertyOp13
 70
     1
102
RTVSPropertyOp14
 70
     1
102
RTVSPropertyOp15
 70
     1
102
RTVSPropertyOp16
 70
     1
102
RTVSPropertyOp17
 70
     1
102
RTVSPropertyOp18
 70
     1
102
RTVSPropertyOp19
 70
     1
102
RTVSPropertyOp20
 70
     1
102
RTVSPropertyOp21
 70
     1
102
RTVSPropertyOp22
 70
     1
102
RTVSPropertyOp23
 70
     1
102
RTVSPropertyOp24
 70
     1
102
RTVSPropertyOp25
 70
     1
102
RTVSPropertyOp26
 70
     1
102
RTVSPropertyOp27
 70
     1
102
RTVSPropertyOp28
 70
     1
102
RTVSPropertyOp29
 70
     1
102
RTVSPropertyOp30
 70
     1
102
RTVSPropertyOp31
 70
     1
102
RTVSPropertyOp32
 70
     1
  0
XRECORD
  5
60A
102
{ACAD_REACTORS
330
609
102
}
330
609
100
AcDbXrecord
280
     1
102
RTVSPropertyOp0
 70
     1
102
RTVSPropertyOp1
 70
     1
102
RTVSPropertyOp2
 70
     1
102
RTVSPropertyOp3
 70
     1
102
RTVSPropertyOp4
 70
     1
102
RTVSPropertyOp5
 70
     1
102
RTVSPropertyOp6
 70
     1
102
RTVSPropertyOp7
 70
     1
102
RTVSPropertyOp8
 70
     1
102
RTVSPropertyOp9
 70
     1
102
RTVSPropertyOp10
 70
     1
102
RTVSPropertyOp11
 70
     1
102
RTVSPropertyOp12
 70
     1
102
RTVSPropertyOp13
 70
     1
102
RTVSPropertyOp14
 70
     1
102
RTVSPropertyOp15
 70
     1
102
RTVSPropertyOp16
 70
     1
102
RTVSPropertyOp17
 70
     1
102
RTVSPropertyOp18
 70
     1
102
RTVSPropertyOp19
 70
     1
102
RTVSPropertyOp20
 70
     1
102
RTVSPropertyOp21
 70
     1
102
RTVSPropertyOp22
 70
     1
102
RTVSPropertyOp23
 70
     1
102
RTVSPropertyOp24
 70
     1
102
RTVSPropertyOp25
 70
     1
102
RTVSPropertyOp26
 70
     1
102
RTVSPropertyOp27
 70
     1
102
RTVSPropertyOp28
 70
     1
102
RTVSPropertyOp29
 70
     1
102
RTVSPropertyOp30
 70
     1
102
RTVSPropertyOp31
 70
     1
102
RTVSPropertyOp32
 70
     1
  0
XRECORD
  5
5EE
102
{ACAD_REACTORS
330
5ED
102
}
330
5ED
100
AcDbXrecord
280
     1
102
RTVSPropertyOp0
 70
     1
102
RTVSPropertyOp1
 70
     1
102
RTVSPropertyOp2
 70
     1
102
RTVSPropertyOp3
 70
     1
102
RTVSPropertyOp4
 70
     1
102
RTVSPropertyOp5
 70
     1
102
RTVSPropertyOp6
 70
     1
102
RTVSPropertyOp7
 70
     1
102
RTVSPropertyOp8
 70
     1
102
RTVSPropertyOp9
 70
     1
102
RTVSPropertyOp10
 70
     1
102
RTVSPropertyOp11
 70
     1
102
RTVSPropertyOp12
 70
     1
102
RTVSPropertyOp13
 70
     1
102
RTVSPropertyOp14
 70
     1
102
RTVSPropertyOp15
 70
     1
102
RTVSPropertyOp16
 70
     1
102
RTVSPropertyOp17
 70
     1
102
RTVSPropertyOp18
 70
     1
102
RTVSPropertyOp19
 70
     1
102
RTVSPropertyOp20
 70
     1
102
RTVSPropertyOp21
 70
     1
102
RTVSPropertyOp22
 70
     1
102
RTVSPropertyOp23
 70
     1
102
RTVSPropertyOp24
 70
     1
102
RTVSPropertyOp25
 70
     1
102
RTVSPropertyOp26
 70
     1
102
RTVSPropertyOp27
 70
     1
102
RTVSPropertyOp28
 70
     1
102
RTVSPropertyOp29
 70
     1
102
RTVSPropertyOp30
 70
     1
102
RTVSPropertyOp31
 70
     1
102
RTVSPropertyOp32
 70
     1
  0
XRECORD
  5
5F0
102
{ACAD_REACTORS
330
5EF
102
}
330
5EF
100
AcDbXrecord
280
     1
102
RTVSPropertyOp0
 70
     1
102
RTVSPropertyOp1
 70
     1
102
RTVSPropertyOp2
 70
     1
102
RTVSPropertyOp3
 70
     1
102
RTVSPropertyOp4
 70
     1
102
RTVSPropertyOp5
 70
     1
102
RTVSPropertyOp6
 70
     1
102
RTVSPropertyOp7
 70
     1
102
RTVSPropertyOp8
 70
     1
102
RTVSPropertyOp9
 70
     1
102
RTVSPropertyOp10
 70
     1
102
RTVSPropertyOp11
 70
     1
102
RTVSPropertyOp12
 70
     1
102
RTVSPropertyOp13
 70
     1
102
RTVSPropertyOp14
 70
     1
102
RTVSPropertyOp15
 70
     1
102
RTVSPropertyOp16
 70
     1
102
RTVSPropertyOp17
 70
     1
102
RTVSPropertyOp18
 70
     1
102
RTVSPropertyOp19
 70
     1
102
RTVSPropertyOp20
 70
     1
102
RTVSPropertyOp21
 70
     1
102
RTVSPropertyOp22
 70
     1
102
RTVSPropertyOp23
 70
     1
102
RTVSPropertyOp24
 70
     1
102
RTVSPropertyOp25
 70
     1
102
RTVSPropertyOp26
 70
     1
102
RTVSPropertyOp27
 70
     1
102
RTVSPropertyOp28
 70
     1
102
RTVSPropertyOp29
 70
     1
102
RTVSPropertyOp30
 70
     1
102
RTVSPropertyOp31
 70
     1
102
RTVSPropertyOp32
 70
     1
  0
XRECORD
  5
5F2
102
{ACAD_REACTORS
330
5F1
102
}
330
5F1
100
AcDbXrecord
280
     1
102
RTVSPropertyOp0
 70
     1
102
RTVSPropertyOp1
 70
     1
102
RTVSPropertyOp2
 70
     1
102
RTVSPropertyOp3
 70
     1
102
RTVSPropertyOp4
 70
     1
102
RTVSPropertyOp5
 70
     1
102
RTVSPropertyOp6
 70
     1
102
RTVSPropertyOp7
 70
     1
102
RTVSPropertyOp8
 70
     1
102
RTVSPropertyOp9
 70
     1
102
RTVSPropertyOp10
 70
     1
102
RTVSPropertyOp11
 70
     1
102
RTVSPropertyOp12
 70
     1
102
RTVSPropertyOp13
 70
     1
102
RTVSPropertyOp14
 70
     1
102
RTVSPropertyOp15
 70
     1
102
RTVSPropertyOp16
 70
     1
102
RTVSPropertyOp17
 70
     1
102
RTVSPropertyOp18
 70
     1
102
RTVSPropertyOp19
 70
     1
102
RTVSPropertyOp20
 70
     1
102
RTVSPropertyOp21
 70
     1
102
RTVSPropertyOp22
 70
     1
102
RTVSPropertyOp23
 70
     1
102
RTVSPropertyOp24
 70
     1
102
RTVSPropertyOp25
 70
     1
102
RTVSPropertyOp26
 70
     1
102
RTVSPropertyOp27
 70
     1
102
RTVSPropertyOp28
 70
     1
102
RTVSPropertyOp29
 70
     1
102
RTVSPropertyOp30
 70
     1
102
RTVSPropertyOp31
 70
     1
102
RTVSPropertyOp32
 70
     1
  0
XRECORD
  5
5F4
102
{ACAD_REACTORS
330
5F3
102
}
330
5F3
100
AcDbXrecord
280
     1
102
RTVSPropertyOp0
 70
     1
102
RTVSPropertyOp1
 70
     1
102
RTVSPropertyOp2
 70
     1
102
RTVSPropertyOp3
 70
     1
102
RTVSPropertyOp4
 70
     1
102
RTVSPropertyOp5
 70
     1
102
RTVSPropertyOp6
 70
     1
102
RTVSPropertyOp7
 70
     1
102
RTVSPropertyOp8
 70
     1
102
RTVSPropertyOp9
 70
     1
102
RTVSPropertyOp10
 70
     1
102
RTVSPropertyOp11
 70
     1
102
RTVSPropertyOp12
 70
     1
102
RTVSPropertyOp13
 70
     1
102
RTVSPropertyOp14
 70
     1
102
RTVSPropertyOp15
 70
     1
102
RTVSPropertyOp16
 70
     1
102
RTVSPropertyOp17
 70
     1
102
RTVSPropertyOp18
 70
     1
102
RTVSPropertyOp19
 70
     1
102
RTVSPropertyOp20
 70
     1
102
RTVSPropertyOp21
 70
     1
102
RTVSPropertyOp22
 70
     1
102
RTVSPropertyOp23
 70
     1
102
RTVSPropertyOp24
 70
     1
102
RTVSPropertyOp25
 70
     1
102
RTVSPropertyOp26
 70
     1
102
RTVSPropertyOp27
 70
     1
102
RTVSPropertyOp28
 70
     1
102
RTVSPropertyOp29
 70
     1
102
RTVSPropertyOp30
 70
     1
102
RTVSPropertyOp31
 70
     1
102
RTVSPropertyOp32
 70
     1
  0
XRECORD
  5
608
102
{ACAD_REACTORS
330
607
102
}
330
607
100
AcDbXrecord
280
     1
102
RTVSPropertyOp0
 70
     1
102
RTVSPropertyOp1
 70
     1
102
RTVSPropertyOp2
 70
     1
102
RTVSPropertyOp3
 70
     1
102
RTVSPropertyOp4
 70
     1
102
RTVSPropertyOp5
 70
     1
102
RTVSPropertyOp6
 70
     1
102
RTVSPropertyOp7
 70
     1
102
RTVSPropertyOp8
 70
     1
102
RTVSPropertyOp9
 70
     1
102
RTVSPropertyOp10
 70
     1
102
RTVSPropertyOp11
 70
     1
102
RTVSPropertyOp12
 70
     1
102
RTVSPropertyOp13
 70
     1
102
RTVSPropertyOp14
 70
     1
102
RTVSPropertyOp15
 70
     1
102
RTVSPropertyOp16
 70
     1
102
RTVSPropertyOp17
 70
     1
102
RTVSPropertyOp18
 70
     1
102
RTVSPropertyOp19
 70
     1
102
RTVSPropertyOp20
 70
     1
102
RTVSPropertyOp21
 70
     1
102
RTVSPropertyOp22
 70
     1
102
RTVSPropertyOp23
 70
     1
102
RTVSPropertyOp24
 70
     1
102
RTVSPropertyOp25
 70
     1
102
RTVSPropertyOp26
 70
     1
102
RTVSPropertyOp27
 70
     1
102
RTVSPropertyOp28
 70
     1
102
RTVSPropertyOp29
 70
     1
102
RTVSPropertyOp30
 70
     1
102
RTVSPropertyOp31
 70
     1
102
RTVSPropertyOp32
 70
     1
  0
XRECORD
  5
5FE
102
{ACAD_REACTORS
330
5FD
102
}
330
5FD
100
AcDbXrecord
280
     1
102
RTVSPropertyOp0
 70
     1
102
RTVSPropertyOp1
 70
     1
102
RTVSPropertyOp2
 70
     1
102
RTVSPropertyOp3
 70
     1
102
RTVSPropertyOp4
 70
     1
102
RTVSPropertyOp5
 70
     1
102
RTVSPropertyOp6
 70
     1
102
RTVSPropertyOp7
 70
     1
102
RTVSPropertyOp8
 70
     1
102
RTVSPropertyOp9
 70
     1
102
RTVSPropertyOp10
 70
     1
102
RTVSPropertyOp11
 70
     1
102
RTVSPropertyOp12
 70
     1
102
RTVSPropertyOp13
 70
     1
102
RTVSPropertyOp14
 70
     1
102
RTVSPropertyOp15
 70
     1
102
RTVSPropertyOp16
 70
     1
102
RTVSPropertyOp17
 70
     1
102
RTVSPropertyOp18
 70
     1
102
RTVSPropertyOp19
 70
     1
102
RTVSPropertyOp20
 70
     1
102
RTVSPropertyOp21
 70
     1
102
RTVSPropertyOp22
 70
     1
102
RTVSPropertyOp23
 70
     1
102
RTVSPropertyOp24
 70
     1
102
RTVSPropertyOp25
 70
     1
102
RTVSPropertyOp26
 70
     1
102
RTVSPropertyOp27
 70
     1
102
RTVSPropertyOp28
 70
     1
102
RTVSPropertyOp29
 70
     1
102
RTVSPropertyOp30
 70
     1
102
RTVSPropertyOp31
 70
     1
102
RTVSPropertyOp32
 70
     1
  0
XRECORD
  5
606
102
{ACAD_REACTORS
330
605
102
}
330
605
100
AcDbXrecord
280
     1
102
RTVSPropertyOp0
 70
     1
102
RTVSPropertyOp1
 70
     1
102
RTVSPropertyOp2
 70
     1
102
RTVSPropertyOp3
 70
     1
102
RTVSPropertyOp4
 70
     1
102
RTVSPropertyOp5
 70
     1
102
RTVSPropertyOp6
 70
     1
102
RTVSPropertyOp7
 70
     1
102
RTVSPropertyOp8
 70
     1
102
RTVSPropertyOp9
 70
     1
102
RTVSPropertyOp10
 70
     1
102
RTVSPropertyOp11
 70
     1
102
RTVSPropertyOp12
 70
     1
102
RTVSPropertyOp13
 70
     1
102
RTVSPropertyOp14
 70
     1
102
RTVSPropertyOp15
 70
     1
102
RTVSPropertyOp16
 70
     1
102
RTVSPropertyOp17
 70
     1
102
RTVSPropertyOp18
 70
     1
102
RTVSPropertyOp19
 70
     1
102
RTVSPropertyOp20
 70
     1
102
RTVSPropertyOp21
 70
     1
102
RTVSPropertyOp22
 70
     1
102
RTVSPropertyOp23
 70
     1
102
RTVSPropertyOp24
 70
     1
102
RTVSPropertyOp25
 70
     1
102
RTVSPropertyOp26
 70
     1
102
RTVSPropertyOp27
 70
     1
102
RTVSPropertyOp28
 70
     1
102
RTVSPropertyOp29
 70
     1
102
RTVSPropertyOp30
 70
     1
102
RTVSPropertyOp31
 70
     1
102
RTVSPropertyOp32
 70
     1
  0
ENDSEC
  0
EOF
